Чайка / The seagull (Майкл Майер) [2018, драма, мелодрама, комедия, BDRip 1080p | iTunes]

Ответить на тему
Статистика раздачи [Обновить пиров]
Размер:  10,83 GB   |    Зарегистрирован:  2 месяца 24 дня   |    .torrent скачан:  5 раз
Сидов:  31  [  0 KB/s  ]   Личеров:  4  [  0 KB/s  ]   Подробная статистика пиров
 
   
 
 
Автор Сообщение

Skorp10n ®

Оффлайн

 Активный раздающий 1 Активный раздающий 2
 Активный релизер 1000 Активный релизер 1500 Активный релизер 2000 Активный релизер 250 Активный релизер 3000 Активный релизер 500 Активный релизер 5000 Активный релизер Фильмов (1000) Активный релизер Фильмов (300) Активный релизер Фильмов (600) Активный Форумчанин 1 Активный Форумчанин 2 Активный Форумчанин 3 Активный Форумчанин 4 Друг трекера Карма 1000 Карма 1500 Карма 3000 Карма 500 Меценат Ни дня без новостей Орденосец 1 степени Орденосец 2 степени Орденосец 3 степени Почетный орденосец Почетный репортер С Новым 2016 Годом! С Новым 2017 Годом! С Новым 2018 Годом! С Новым 2019 Годом! Супер Мега Контер Квейк ТОП-10

Пол: Мужской

Стаж: 3 года 11 месяцев

Наличие запрета:

Сообщений: 10847

Откуда: Free-Tor.com

Отдача: не определено

Загрузка: не определено

Нажми

Создавать темы 21-Апр-2019 13:46

[Цитировать]

Информация о фильме- Название: Чайка
Оригинальное название: The seagull
Год выхода: 2018
Жанр: Драма, мелодрама, комедия
Режиссер: Майкл Майер
В ролях: Аннетт Бенинг, Кори Столл, Гленн Флешлер, Билли Хоул, Брайан Деннехи, Элизабет Мосс, Мэр Уиннингхэм, Джон Тенни, Майкл Зеген, Сирша Ронан-О фильме:-Молодой драматург Константин Треплев ставит собственную пьесу в провинциальной усадьбе, отдав единственную роль своей амбициозной возлюбленной Нине. Провал спектакля, но успех актрисы разрушат прежние взаимоотношения и положат начало новым роковым связям.- -Страна: США
Студия: KGB Media, Mar-Key Pictures
Продолжительность: 01:38:38
Перевод:
Профессиональный (многоголосый, закадровый) | iTunes-Файл-Качество: BDRip 1080p
Формат: MKV
Кодек: MPEG-4 AVC
Видео: 1920x804 (2,40:1), 23,976 fps, MPEG-4 AVC ~ 13,8 Мbps avg, 0.373 bit/pixel
Аудио: AC3, 48 kHz, 6 ch, ~384.00 kbps avg | русский | iTunes
Аудио: DTS, 48 kHz, 6 ch, ~1509.00.00 kbps avg | английский | Оригинал-Субтитры: Английские (Full, SDH)-

Инфо-файл

-Общее
Уникальный идентификатор : 176413922392254594958446444356841205747 (0x84B815E830EB70F4A694C9076AF76FF3)
Полное имя : The.Seagull.2018.1080p.BluRay.x264.DD.5.1.mkv
Формат : Matroska
Версия формата : Version 4 / Version 2
Размер файла : 10,8 Гбайт
Продолжительность : 1 ч. 38 м.
Общий поток : 15,7 Мбит/сек
Название фильма : Чайка / The seagull (2018)
Дата кодирования : UTC 2019-04-18 19:50:09
Программа кодирования : mkvmerge v27.0.0 ('Metropolis') 64-bit
Библиотека кодирования : libebml v1.3.6 + libmatroska v1.4.9
Обложка : Yes
Attachments : cover.jpg
Видео
Идентификатор : 1
Формат : AVC
Формат/Информация : Advanced Video Codec
Профиль формата : [email protected]
Настройки формата : CABAC / 5 Ref Frames
Параметр CABAC формата : Да
Параметр RefFrames формата : 5 кадров
Идентификатор кодека : V_MPEG4/ISO/AVC
Продолжительность : 1 ч. 38 м.
Битрейт : 13,8 Мбит/сек
Ширина : 1920 пикселей
Высота : 804 пикселя
Соотношение сторон : 2,40:1
Режим частоты кадров : Постоянный
Частота кадров : 23,976 (24000/1001) кадра/сек
Цветовое пространство : YUV
Субдискретизация насыщенности : 4:2:0
Битовая глубина : 8 бит
Тип развёртки : Прогрессивная
Бит/(Пиксели*Кадры) : 0.373
Размер потока : 9,52 Гбайт (88%)
Заголовок : WiKi
Библиотека кодирования : x264 core 155 r2867+82 a249126 t_mod_Custom_2 [[email protected] X86_64]
Настройки программы : cabac=1 / ref=5 / deblock=1:-3:-3 / analyse=0x3:0x133 / me=umh / subme=10 / psy=1 / fade_compensate=0.00 / psy_rd=1.05:0.00 / mixed_ref=1 / me_range=32 / chroma_me=1 / trellis=2 / 8x8dct=1 / cqm=0 / deadzone=21,11 / fast_pskip=0 / chroma_qp_offset=-2 / threads=12 / lookahead_threads=2 / sliced_threads=0 / nr=0 / decimate=0 / interlaced=0 / bluray_compat=0 / constrained_intra=0 / fgo=0 / bframes=7 / b_pyramid=2 / b_adapt=2 / b_bias=0 / direct=3 / weightb=1 / open_gop=0 / weightp=2 / keyint=250 / keyint_min=23 / scenecut=40 / intra_refresh=0 / rc_lookahead=60 / rc=crf / mbtree=0 / crf=16.3000 / qcomp=0.60 / qpmin=0:0:0 / qpmax=69:69:69 / qpstep=4 / vbv_maxrate=62500 / vbv_bufsize=78125 / crf_max=0.0 / nal_hrd=none / filler=0 / ip_ratio=1.30 / pb_ratio=1.20 / aq=3:0.80 / aq-sensitivity=10.00 / aq-factor=1.00:1.00:1.00 / aq2=0 / aq3=0
Язык : English
Default : Да
Forced : Нет
Аудио #1
Идентификатор : 2
Формат : AC-3
Формат/Информация : Audio Coding 3
Идентификатор кодека : A_AC3
Продолжительность : 1 ч. 38 м.
Вид битрейта : Постоянный
Битрейт : 384 Кбит/сек
Каналы : 6 каналов
Расположение каналов : Front: L C R, Side: L R, LFE
Частота : 48,0 КГц
Частота кадров : 31,250 кадров/сек (1536 SPF)
Битовая глубина : 16 бит
Метод сжатия : С потерями
Размер потока : 271 Мбайт (2%)
Заголовок : iTunes
Язык : Russian
Default : Да
Forced : Нет
Аудио #2
Идентификатор : 3
Формат : DTS
Формат/Информация : Digital Theater Systems
Идентификатор кодека : A_DTS
Продолжительность : 1 ч. 38 м.
Вид битрейта : Постоянный
Битрейт : 1509 Кбит/сек
Каналы : 6 каналов
Расположение каналов : Front: L C R, Side: L R, LFE
Частота : 48,0 КГц
Частота кадров : 93,750 кадра/сек (512 SPF)
Битовая глубина : 24 бит
Метод сжатия : С потерями
Размер потока : 1,04 Гбайт (10%)
Язык : English
Default : Нет
Forced : Нет
Текст #1
Идентификатор : 4
Формат : UTF-8
Идентификатор кодека : S_TEXT/UTF8
Идентификатор кодека/Информация : UTF-8 Plain Text
Продолжительность : 1 ч. 33 м.
Битрейт : 61 бит/сек
ElementCount : 1398
Размер потока : 42,1 Кбайт (0%)
Заголовок : Full
Язык : English
Default : Нет
Forced : Нет
Текст #2
Идентификатор : 5
Формат : UTF-8
Идентификатор кодека : S_TEXT/UTF8
Идентификатор кодека/Информация : UTF-8 Plain Text
Продолжительность : 1 ч. 34 м.
Битрейт : 66 бит/сек
ElementCount : 1531
Размер потока : 46,2 Кбайт (0%)
Заголовок : SDH
Язык : English
Default : Нет
Forced : Нет
Меню
00:00:00.000 : en:00:00:00.000
00:10:18.326 : en:00:10:18.326
00:20:42.616 : en:00:20:42.616
00:30:09.558 : en:00:30:09.558
00:41:35.535 : en:00:41:35.535
00:50:23.646 : en:00:50:23.646
01:05:27.674 : en:01:05:27.674
01:14:03.773 : en:01:14:03.773
01:23:15.657 : en:01:23:15.657
01:34:51.853 : en:01:34:51.853-
-

Скриншоты

--
-
[free-tor.info].t20694.torrent 
Торрент: Зарегистрирован [ 2019-04-21 13:46 ] · 5FE9C006AC29EFE025291E4EF0019F76AC7FA2C6

Скачать .torrent

Скачать .torrent

28 KB

Статус: проверено
.torrent скачан: 5 раз
Размер: 10,83 GB
Правила
Volodymyr(21-Апр-19)
Похожие темы

[Профиль] [ЛС]
Показать сообщения:    
Ответить на тему

Текущее время: 16-Июл 04:49

Часовой пояс: UTC + 4



Вы не можете начинать темы
Вы не можете отвечать на сообщения
Вы не можете редактировать свои сообщения
Вы не можете удалять свои сообщения
Вы не можете голосовать в опросах
Вы не можете прикреплять файлы к сообщениям
Вы можете скачивать файлы
Анализ веб сайтов Яндекс.Метрика