Шедевр / Mi obra maestra (Гастон Дюпра) [2018, комедия, BDRip 1080p от селезень | iTunes]

Ответить на тему
Статистика раздачи [Обновить пиров]
Размер:  8,44 GB   |    Зарегистрирован:  2 месяца 24 дня   |    .torrent скачан:  5 раз
Сидов:  165  [  0 KB/s  ]   Личеров:  4  [  0 KB/s  ]   Подробная статистика пиров
 
   
 
 
Автор Сообщение

Skorp10n ®

Оффлайн

 Активный раздающий 1 Активный раздающий 2
 Активный релизер 1000 Активный релизер 1500 Активный релизер 2000 Активный релизер 250 Активный релизер 3000 Активный релизер 500 Активный релизер 5000 Активный релизер Фильмов (1000) Активный релизер Фильмов (300) Активный релизер Фильмов (600) Активный Форумчанин 1 Активный Форумчанин 2 Активный Форумчанин 3 Активный Форумчанин 4 Друг трекера Карма 1000 Карма 1500 Карма 3000 Карма 500 Меценат Ни дня без новостей Орденосец 1 степени Орденосец 2 степени Орденосец 3 степени Почетный орденосец Почетный репортер С Новым 2016 Годом! С Новым 2017 Годом! С Новым 2018 Годом! С Новым 2019 Годом! Супер Мега Контер Квейк ТОП-10

Пол: Мужской

Стаж: 3 года 11 месяцев

Наличие запрета:

Сообщений: 10847

Откуда: Free-Tor.com

Отдача: не определено

Загрузка: не определено

Нажми

Создавать темы 21-Апр-2019 15:52

[Цитировать]

Информация о фильме- Название: Шедевр
Оригинальное название: Mi obra maestra
Год выхода: 2018
Жанр: Комедия
Режиссер: Гастон Дюпра
В ролях: Андреа Акатто, Лукас Аранда, Рауль Аревало, Махмуд Азим, Луис Брандони, Даниэла Кац, София Кондисциани, Эмилия Дупрат, Октавио Дупрат, Моника Дюпра- -О фильме: Артуро — утонченный владелец художественной галереи в Буэнос-Айресе и беспринципный арт-дилер. Ренцо — угрюмый и циничный живописец, одинаково ненавидящий арт-критиков, тусовки, журналистов и клиентов, которые хотят получить шедевр на заказ. Несмотря на разность, эти двое были лучшими друзьями и партнёрами на протяжении многих лет, пока Артуро не придумал гениальную аферу.-Страна: Аргентина, Испания
Студия: Arco Libre, Hei Films, Instituto Nacional de Cine y Artes Audiovisuales
Продолжительность: 01:44:38
Перевод: Профессиональный многоголосый | iTunes-Качество: BDRip 1080p
Видео: MPEG-4 AVC, 1920x800, 10.5 Mbit/s, 24 fps
Звук:
Аудио #01: 48 kHz, AC3, 5.1, 384 Kbps | iTunes | RUS |
Аудио #02: 48 kHz, AC3, 5.1, 640 Kbps | Оригинал | SPA | -

Скриншоты

--
-

MI

-General
Unique ID : 46328264032386358595506096809387578884 (0x22DA7FC4D49BBF81002143CD04AD5604)
Complete name : D:Video111Mi.Obra.Maestra.2018.BDRip.seleZen.1080p.mkv
Format : Matroska
Format version : Version 4
File size : 8.44 GiB
Duration : 1 h 44 min
Overall bit rate : 11.6 Mb/s
Movie name : Mi Obra Maestra 2018 from селезень
Encoded date : UTC 2019-04-13 09:54:14
Writing application : mkvmerge v32.0.0 ('Astral Progressions') 64-bit
Writing library : libebml v1.3.7 + libmatroska v1.5.0
Video
ID : 1
Format : AVC
Format/Info : Advanced Video Codec
Format profile : [email protected]
Format settings : CABAC / 5 Ref Frames
Format settings, CABAC : Yes
Format settings, ReFrames : 5 frames
Codec ID : V_MPEG4/ISO/AVC
Duration : 1 h 44 min
Bit rate : 10.5 Mb/s
Width : 1 920 pixels
Height : 800 pixels
Display aspect ratio : 2.40:1
Frame rate mode : Constant
Frame rate : 24.000 FPS
Color space : YUV
Chroma subsampling : 4:2:0
Bit depth : 8 bits
Scan type : Progressive
Bits/(Pixel*Frame) : 0.286
Stream size : 7.69 GiB (91%)
Title : seleZen
Writing library : x264 core 148 r2705kMod 3f5ed56
Encoding settings : cabac=1 / ref=5 / deblock=1:-2:-2 / analyse=0x3:0x133 / me=umh / subme=11 / psy=1 / fade_compensate=0.00 / psy_rd=1.20:0.05 / mixed_ref=1 / me_range=32 / chroma_me=1 / trellis=2 / 8x8dct=1 / cqm=0 / deadzone=21,11 / fast_pskip=0 / chroma_qp_offset=-3 / threads=12 / lookahead_threads=2 / sliced_threads=0 / nr=0 / decimate=0 / interlaced=0 / bluray_compat=0 / constrained_intra=0 / fgo=0 / bframes=8 / b_pyramid=2 / b_adapt=2 / b_bias=0 / direct=3 / weightb=1 / open_gop=0 / weightp=2 / keyint=240 / keyint_min=24 / scenecut=40 / intra_refresh=0 / rc_lookahead=50 / rc=2pass / mbtree=0 / bitrate=10547 / ratetol=1.0 / qcomp=0.60 / qpmin=0 / qpmax=51 / qpstep=4 / cplxblur=20.0 / qblur=0.5 / vbv_maxrate=50000 / vbv_bufsize=62500 / nal_hrd=none / filler=0 / ip_ratio=1.40 / pb_ratio=1.30 / aq=3:0.80
Language : English
Default : Yes
Forced : No
Audio #1
ID : 2
Format : AC-3
Format/Info : Audio Coding 3
Commercial name : Dolby Digital
Codec ID : A_AC3
Duration : 1 h 44 min
Bit rate mode : Constant
Bit rate : 384 kb/s
Channel(s) : 6 channels
Channel layout : L R C LFE Ls Rs
Sampling rate : 48.0 kHz
Frame rate : 31.250 FPS (1536 SPF)
Bit depth : 16 bits
Compression mode : Lossy
Stream size : 287 MiB (3%)
Title : iTunes
Language : Russian
Service kind : Complete Main
Default : Yes
Forced : Yes
Audio #2
ID : 3
Format : AC-3
Format/Info : Audio Coding 3
Commercial name : Dolby Digital
Codec ID : A_AC3
Duration : 1 h 44 min
Bit rate mode : Constant
Bit rate : 640 kb/s
Channel(s) : 6 channels
Channel layout : L R C LFE Ls Rs
Sampling rate : 48.0 kHz
Frame rate : 31.250 FPS (1536 SPF)
Bit depth : 16 bits
Compression mode : Lossy
Stream size : 479 MiB (6%)
Title : Original
Language : Spanish
Service kind : Complete Main
Default : No
Forced : No
Menu
00:00:00.000 : :Chapter 01
00:07:59.958 : :Chapter 02
00:16:10.167 : :Chapter 03
00:24:22.750 : :Chapter 04
00:30:54.833 : :Chapter 05
00:39:39.792 : :Chapter 06
00:48:34.083 : :Chapter 07
01:00:43.125 : :Chapter 08
01:09:41.750 : :Chapter 09
01:14:34.708 : :Chapter 10
01:21:08.375 : :Chapter 11
01:32:39.083 : :Chapter 12-
-Релиз от: -
[free-tor.info].t20726.torrent 
Торрент: Зарегистрирован [ 2019-04-21 15:52 ] · 2CDB9242B4AEF98F61D35D1E9E5B886435E0E16E

Скачать .torrent

Скачать .torrent

170 KB

Статус: проверено
.torrent скачан: 5 раз
Размер: 8,44 GB
Правила
Volodymyr(23-Апр-19)
Похожие темы

[Профиль] [ЛС]
Показать сообщения:    
Ответить на тему

Текущее время: 16-Июл 04:07

Часовой пояс: UTC + 4



Вы не можете начинать темы
Вы не можете отвечать на сообщения
Вы не можете редактировать свои сообщения
Вы не можете удалять свои сообщения
Вы не можете голосовать в опросах
Вы не можете прикреплять файлы к сообщениям
Вы можете скачивать файлы
Анализ веб сайтов Яндекс.Метрика