Любить нельзя расстаться / El amor menos pensado (Хуан Вера) [2018, мелодрама, комедия, BDRemux 1080p от селезень | iTunes]

Ответить на тему
Статистика раздачи [Обновить пиров]
Размер:  20,16 GB   |    Зарегистрирован:  2 месяца 24 дня   |    .torrent скачан:  7 раз
Сидов:  18  [  0 KB/s  ]   Личеров:  6  [  0 KB/s  ]   Подробная статистика пиров
 
   
 
 
Автор Сообщение

Skorp10n ®

Оффлайн

 Активный раздающий 1 Активный раздающий 2
 Активный релизер 1000 Активный релизер 1500 Активный релизер 2000 Активный релизер 250 Активный релизер 3000 Активный релизер 500 Активный релизер 5000 Активный релизер Фильмов (1000) Активный релизер Фильмов (300) Активный релизер Фильмов (600) Активный Форумчанин 1 Активный Форумчанин 2 Активный Форумчанин 3 Активный Форумчанин 4 Друг трекера Карма 1000 Карма 1500 Карма 3000 Карма 500 Меценат Ни дня без новостей Орденосец 1 степени Орденосец 2 степени Орденосец 3 степени Почетный орденосец Почетный репортер С Новым 2016 Годом! С Новым 2017 Годом! С Новым 2018 Годом! С Новым 2019 Годом! Супер Мега Контер Квейк ТОП-10

Пол: Мужской

Стаж: 3 года 11 месяцев

Наличие запрета:

Сообщений: 10847

Откуда: Free-Tor.com

Отдача: не определено

Загрузка: не определено

Нажми

Создавать темы 21-Апр-2019 16:37

[Цитировать]

Информация о фильме- Название: Любить нельзя расстаться
Оригинальное название: El amor menos pensado
Год выхода: 2018
Жанр: Мелодрама, комедия
Режиссер: Хуан Вера
В ролях: Рикардо Дарин, Мерседес Моран, Клаудия Фонтан, Луис Рубио, Андреа Пьетра, Жан Пьер Ноер, Норман Бриски, Хуан Минухин, Габриэль Коррадо, Андреа Политти--О фильме: Маркос и Ана счастливо прожили вместе 25 лет, но когда их единственный повзрослевший сын отправляется на учебу в другую страну, они чувствуют, что из их отношений пропало что то важное. Действительно ли они все еще любят друг друга или между ними всего лишь привязанность? Чтобы разобраться в своих чувствах, они решают пожить отдельно. Расстаются, что называется, по обоюдному согласию. Поначалу холостая жизнь выглядит более интересной и захватывающей, но со временем у них начинают возникать новые вопросы. А что такое вообще есть любовь, что лежит в основе преданности двух людей? Каждый из них должен принять важное решение, которое навсегда изменит их жизни.-Страна: Аргентина
Студия: Boneco Films, Instituto Nacional de Cine y Artes Audiovisuales (INCAA), Kenya Films, Patagonik Film Group
Продолжительность: 02:09:37
Перевод: Профессиональный многоголосый | iTunes-Качество: BDRemux 1080p
Видео: MPEG-4 AVC, 1920x1080, 19.9 Mbit/s, 24 fps
Звук:
Аудио #01: 48 kHz, AC3, 5.1, 384 Kbps | iTunes | RUS |
Аудио #02: 48 kHz, DTS-HD MA, 5.1, 1930 Kbps | Оригинал | SPA | -

Скриншоты

--
-

MI

-General
Unique ID : 278404653425065136328188818070434815301 (0xD172C92EB2BEC0F6BBD96B75E5911D45)
Complete name : D:Video111El.amor.menos.pensado.AKA.An.Unexpected.Love.2018.BDREMUX.1080p.seleZen.mkv
Format : Matroska
Format version : Version 4
File size : 20.2 GiB
Duration : 2 h 9 min
Overall bit rate mode : Variable
Overall bit rate : 22.3 Mb/s
Movie name : El amor menos pensado AKA An Unexpected Love 2018 from селезень
Encoded date : UTC 2019-04-18 23:32:47
Writing application : mkvmerge v32.0.0 ('Astral Progressions') 64-bit
Writing library : libebml v1.3.7 + libmatroska v1.5.0
Video
ID : 1
Format : AVC
Format/Info : Advanced Video Codec
Format profile : [email protected]
Format settings : CABAC / 4 Ref Frames
Format settings, CABAC : Yes
Format settings, ReFrames : 4 frames
Codec ID : V_MPEG4/ISO/AVC
Duration : 2 h 9 min
Bit rate mode : Variable
Bit rate : 19.9 Mb/s
Maximum bit rate : 35.0 Mb/s
Width : 1 920 pixels
Height : 1 080 pixels
Display aspect ratio : 16:9
Frame rate mode : Constant
Frame rate : 24.000 FPS
Standard : NTSC
Color space : YUV
Chroma subsampling : 4:2:0
Bit depth : 8 bits
Scan type : Progressive
Bits/(Pixel*Frame) : 0.401
Stream size : 18.1 GiB (90%)
Language : Spanish
Default : Yes
Forced : No
Color range : Limited
Color primaries : BT.709
Transfer characteristics : BT.709
Matrix coefficients : BT.709
Audio #1
ID : 2
Format : AC-3
Format/Info : Audio Coding 3
Commercial name : Dolby Digital
Codec ID : A_AC3
Duration : 2 h 9 min
Bit rate mode : Constant
Bit rate : 384 kb/s
Channel(s) : 6 channels
Channel layout : L R C LFE Ls Rs
Sampling rate : 48.0 kHz
Frame rate : 31.250 FPS (1536 SPF)
Bit depth : 16 bits
Compression mode : Lossy
Stream size : 356 MiB (2%)
Title : iTunes
Language : Russian
Service kind : Complete Main
Default : Yes
Forced : Yes
Audio #2
ID : 3
Format : DTS XLL
Format/Info : Digital Theater Systems
Commercial name : DTS-HD Master Audio
Codec ID : A_DTS
Duration : 2 h 9 min
Bit rate mode : Variable
Bit rate : 1 930 kb/s
Channel(s) : 6 channels
Channel layout : C L R Ls Rs LFE
Sampling rate : 48.0 kHz
Frame rate : 93.750 FPS (512 SPF)
Bit depth : 24 bits
Compression mode : Lossless
Stream size : 1.75 GiB (9%)
Title : Original
Language : Spanish
Default : No
Forced : No
Menu
00:00:00.000 : en:Chapter 01
00:15:08.792 : en:Chapter 02
00:31:47.333 : en:Chapter 03
00:45:29.458 : en:Chapter 04
01:01:44.542 : en:Chapter 05
01:16:23.958 : en:Chapter 06
01:32:32.167 : en:Chapter 07
01:50:38.292 : en:Chapter 08-
-Релиз от: -
[free-tor.info].t20740.torrent 
Торрент: Зарегистрирован [ 2019-04-21 16:37 ] · F79E42A0B3B63C294B021B8E5CC1564FA387A21F

Скачать .torrent

Скачать .torrent

203 KB

Статус: проверено
.torrent скачан: 7 раз
Размер: 20,16 GB
Правила
Похожие темы

[Профиль] [ЛС]
Показать сообщения:    
Ответить на тему

Текущее время: 16-Июл 04:39

Часовой пояс: UTC + 4



Вы не можете начинать темы
Вы не можете отвечать на сообщения
Вы не можете редактировать свои сообщения
Вы не можете удалять свои сообщения
Вы не можете голосовать в опросах
Вы не можете прикреплять файлы к сообщениям
Вы можете скачивать файлы
Анализ веб сайтов Яндекс.Метрика