Игра Престолов / Game Of Thrones (Дэвид Наттер, Алан Тейлор, Алекс Грейвз) [S08] [2019, фэнтези, драма, мелодрама, приключения, WEB-DLRip-AVC | HDrezka Studio]

Ответить на тему
Статистика раздачи [Обновить пиров]
Размер:  3,84 GB   |    Зарегистрирован:  1 месяц 30 дней   |    .torrent скачан:  4 раза
Сидов:  49  [  0 KB/s  ]   Личеров:  102  [  0 KB/s  ]   Подробная статистика пиров
 
   
 
 
Автор Сообщение

Skorp10n ®

Оффлайн

 Активный раздающий 1 Активный раздающий 2
 Активный релизер 1000 Активный релизер 1500 Активный релизер 2000 Активный релизер 250 Активный релизер 3000 Активный релизер 500 Активный релизер 5000 Активный релизер Фильмов (1000) Активный релизер Фильмов (300) Активный релизер Фильмов (600) Активный Форумчанин 1 Активный Форумчанин 2 Активный Форумчанин 3 Активный Форумчанин 4 Друг трекера Карма 1000 Карма 1500 Карма 3000 Карма 500 Меценат Ни дня без новостей Орденосец 1 степени Орденосец 2 степени Орденосец 3 степени Почетный орденосец Почетный репортер С Новым 2016 Годом! С Новым 2017 Годом! С Новым 2018 Годом! С Новым 2019 Годом! Супер Мега Контер Квейк ТОП-10

Пол: Мужской

Стаж: 3 года 11 месяцев

Наличие запрета:

Сообщений: 11012

Откуда: Free-Tor.com

Отдача: не определено

Загрузка: не определено

Нажми

Создавать темы 21-Апр-2019 21:18

[Цитировать]

Информация о фильме- Название: Игра Престолов
Оригинальное название: Game Of Thrones
Год выхода: 2019
Жанр: фэнтези, драма, мелодрама, приключения
Режиссер: Дэвид Наттер, Алан Тейлор, Алекс Грейвз
В ролях: Питер Динклэйдж, Лина Хиди, Эмилия Кларк, Кит Харингтон, Софи Тернер, Мэйси Уильямс, Николай Костер-Вальдау, Иэн Глен, Элфи Оуэн-Аллен, Джон Брэдли и другие-О фильме:-К концу подходит время благоденствия, и лето, длившееся несколько десятилетий, угасает. Вокруг средоточия власти Семи королевств, Железного трона, зреет заговор, и в это непростое время король решает искать поддержки у друга юности Эддарда Старка (Шон Бин). В мире, где все — от короля до наемника — рвутся к власти, плетут интриги и готовы вонзить нож в спину, есть место и благородству, состраданию и любви. Между тем, никто не замечает пробуждение тьмы из легенд далеко на Севере — и лишь Стена защищает живых к югу от нее. Между древней ледяной Стеной и пламенем навсегда ушедших из мира драконов разворачивается «Игра престолов» — долгожданная экранизация культовой саги Джорджа Р. Р. Мартина «Песнь льда и пламени».- -Страна: США, Великобритания
Студия: HBO
Продолжительность: ~00:53:00
Перевод: профессиональный, многоголосый закадровый | HDrezka Studio
Реклама: Присутствует (заставка студии вначале)-Файл-Кодек: AVC
Качество: WEBRip-AVC
Видео: 712x400, 16:9, 23.976 fps, ~1100 kb/s
Звук: Russian, AC3, 48 kHz, 2 ch, 192 kbps
Субтитры: Russian (Forced, надписи)-Семпл-

О релизе и озвучке

-Сериал озвучен голосами актеров, которые озвучивают дубляж от Kravec для Amedia.-
-

MediaInfo

-
General
Complete name : Game.of.Thrones.S08.WEBRip.400p.rus.HDREZKA.STUDIOGame.of.Thrones.S08E01.WEBRip.400p.2.0.rus.HDREZKA.STUDIO.mkv
Format : Matroska
Format version : Version 4
File size : 519 MiB
Duration : 53 min 14 s
Overall bit rate mode : Variable
Overall bit rate : 1 364 kb/s
Encoded date : UTC 2019-04-18 23:28:17
Writing application : mkvmerge v28.2.0 ('The Awakening') 64-bit
Writing library : libebml v1.3.6 + libmatroska v1.4.9
Video
ID : 1
Format : AVC
Format/Info : Advanced Video Codec
Format profile : [email protected]
Format settings : CABAC / 1 Ref Frames
Format settings, CABAC : Yes
Format settings, RefFrames : 1 frame
Codec ID : V_MPEG4/ISO/AVC
Duration : 53 min 14 s
Bit rate mode : Variable
Bit rate : 1 171 kb/s
Width : 712 pixels
Height : 400 pixels
Display aspect ratio : 16:9
Frame rate mode : Constant
Frame rate : 23.976 (24000/1001) FPS
Color space : YUV
Chroma subsampling : 4:2:0
Bit depth : 8 bits
Scan type : Progressive
Bits/(Pixel*Frame) : 0.171
Stream size : 446 MiB (86%)
Default : Yes
Forced : No
Audio
ID : 2
Format : AC-3
Format/Info : Audio Coding 3
Commercial name : Dolby Digital
Codec ID : A_AC3
Duration : 53 min 14 s
Bit rate mode : Constant
Bit rate : 192 kb/s
Channel(s) : 2 channels
Channel layout : L R
Sampling rate : 48.0 kHz
Frame rate : 31.250 FPS (1536 SPF)
Bit depth : 16 bits
Compression mode : Lossy
Stream size : 73.1 MiB (14%)
Language : Russian
Service kind : Complete Main
Default : Yes
Forced : No
Text
ID : 3
Format : ASS
Codec ID : S_TEXT/ASS
Codec ID/Info : Advanced Sub Station Alpha
Duration : 46 s 750 ms
Bit rate : 35 b/s
Count of elements : 3
Compression mode : Lossless
Stream size : 210 Bytes (0%)
Language : Russian
Default : Yes
-
-

Скриншоты

--
-Релиз от: HDREZKA-
[free-tor.info].t20745.torrent 
Торрент: Зарегистрирован [ 2019-05-22 21:10 ] · 779A5824D72150337F5579E77B3FC46F0929C6EE

Скачать .torrent

Скачать .torrent

21 KB

Статус: проверено
.torrent скачан: 4 раз
Размер: 3,84 GB
Правила
Похожие темы

[Профиль] [ЛС]
Показать сообщения:    
Ответить на тему

Текущее время: 22-Июл 18:13

Часовой пояс: UTC + 4



Вы не можете начинать темы
Вы не можете отвечать на сообщения
Вы не можете редактировать свои сообщения
Вы не можете удалять свои сообщения
Вы не можете голосовать в опросах
Вы не можете прикреплять файлы к сообщениям
Вы можете скачивать файлы
Анализ веб сайтов Яндекс.Метрика