Родители лёгкого поведения / Drunk Parents (Фред Вульф) [2018, комедия, WEB-DL 1080p | iTunes]

Ответить на тему
Статистика раздачи [Обновить пиров]
Размер:  3,69 GB   |    Зарегистрирован:  2 месяца 24 дня   |    .torrent скачан:  16 раз
Сидов:  1072  [  0 KB/s  ]   Личеров:  34  [  0 KB/s  ]   Подробная статистика пиров
 
   
 
 
Автор Сообщение

Skorp10n ®

Оффлайн

 Активный раздающий 1 Активный раздающий 2
 Активный релизер 1000 Активный релизер 1500 Активный релизер 2000 Активный релизер 250 Активный релизер 3000 Активный релизер 500 Активный релизер 5000 Активный релизер Фильмов (1000) Активный релизер Фильмов (300) Активный релизер Фильмов (600) Активный Форумчанин 1 Активный Форумчанин 2 Активный Форумчанин 3 Активный Форумчанин 4 Друг трекера Карма 1000 Карма 1500 Карма 3000 Карма 500 Меценат Ни дня без новостей Орденосец 1 степени Орденосец 2 степени Орденосец 3 степени Почетный орденосец Почетный репортер С Новым 2016 Годом! С Новым 2017 Годом! С Новым 2018 Годом! С Новым 2019 Годом! Супер Мега Контер Квейк ТОП-10

Пол: Мужской

Стаж: 3 года 11 месяцев

Наличие запрета:

Сообщений: 10847

Откуда: Free-Tor.com

Отдача: не определено

Загрузка: не определено

Нажми

Создавать темы 22-Апр-2019 13:18

[Цитировать]

Информация о фильме- Название: Родители лёгкого поведения
Оригинальное название: Drunk Parents
Год выхода: 2018
Жанр: Комедия
Режиссер: Фред Вульф
В ролях: Сальма Хайек, Алек Болдуин, Бриджет Мойнэхэн, Джо Манганьелло, Трит Уильямс, Бен Платт, Саша Митчелл, Джим Гэффиган, Оливия Луккарди, Эйми Маллинз-О фильме: Семейная пара Фрэнк и Нэнси пытаются скрыть от друзей и дочери свой полный финансовый крах. Для этого они идут на всё, даже сдают в аренду чужой особняк. Но получится ли у двух горе-авантюристов провернуть свои невероятные махинации? Ведь каждый их шаг — отличный повод откупорить новую бутылку.- -Выпущено: США, BRON Studios, Creative Wealth Media Finance, Fortitude International
Продолжительность: 01:36:46
Перевод: Дублированный | iTunes-Файл-Качество: WEB-DL 1080p
Контейнер: MKV
Видео: MPEG-4 AVC, 1908x1024, 4964 kbps, 23.976 fps
Аудио: Russian: AC3, 6 ch, 384 Kb/s | iTunes
Субтитры: Нет-Релиз от: -

Скриншоты

--
-

MediaInfo

-General
Unique ID : 247134454424869531761022266928068929372 (0xB9EC5D56DCC9E1488F7DBDBDD4EDA75C)
Complete name : Drunk.Parents.2018.WEB-DL.1080p.ELEKTRI4KA.UNIONGANG.mkv
Format : Matroska
Format version : Version 2
File size : 3.69 GiB
Duration : 1 h 36 min
Overall bit rate : 5 457 kb/s
Encoded date : UTC 2019-04-21 20:23:23
Writing application : mkvmerge v7.8.0 ('River Man') 32bit built on Apr 3 2015 12:11:22
Writing library : libebml v1.3.1 + libmatroska v1.4.2
Video
ID : 2
Format : AVC
Format/Info : Advanced Video Codec
Format profile : [email protected]
Format settings : CABAC / 4 Ref Frames
Format settings, CABAC : Yes
Format settings, RefFrames : 4 frames
Codec ID : V_MPEG4/ISO/AVC
Duration : 1 h 36 min
Bit rate : 4 964 kb/s
Width : 1 908 pixels
Height : 1 024 pixels
Display aspect ratio : 1.85:1
Frame rate mode : Constant
Frame rate : 23.976 (24000/1001) FPS
Color space : YUV
Chroma subsampling : 4:2:0
Bit depth : 8 bits
Scan type : Progressive
Bits/(Pixel*Frame) : 0.106
Stream size : 3.36 GiB (91%)
Language : English
Default : Yes
Forced : No
Color range : Limited
Color primaries : BT.709
Transfer characteristics : BT.709
Matrix coefficients : BT.709
Audio
ID : 1
Format : AC-3
Format/Info : Audio Coding 3
Format settings, Endianness : Big
Codec ID : A_AC3
Duration : 1 h 36 min
Bit rate mode : Constant
Bit rate : 384 kb/s
Channel(s) : 6 channels
Channel positions : Front: L C R, Side: L R, LFE
Sampling rate : 48.0 kHz
Frame rate : 31.250 FPS (1536 SPF)
Bit depth : 16 bits
Compression mode : Lossy
Stream size : 266 MiB (7%)
Language : Russian
Service kind : Complete Main
Default : Yes
Forced : No
Menu
00:00:00.000 : en:1
00:01:03.000 : en:2
00:12:59.000 : en:3
00:23:47.000 : en:4
00:34:57.000 : en:5
00:46:24.000 : en:6
00:56:17.000 : en:7
01:07:26.000 : en:8
01:17:15.000 : en:9
01:30:15.000 : en:10-
-
[free-tor.info].t20755.torrent 
Торрент: Зарегистрирован [ 2019-04-22 13:18 ] · D33E5DFEDB0331E895D6F3B7F2FE284EA0FEBB9E

Скачать .torrent

Скачать .torrent

19 KB

Статус: проверено
.torrent скачан: 16 раз
Размер: 3,69 GB
Правила
Похожие темы

[Профиль] [ЛС]
Показать сообщения:    
Ответить на тему

Текущее время: 17-Июл 03:08

Часовой пояс: UTC + 4



Вы не можете начинать темы
Вы не можете отвечать на сообщения
Вы не можете редактировать свои сообщения
Вы не можете удалять свои сообщения
Вы не можете голосовать в опросах
Вы не можете прикреплять файлы к сообщениям
Вы можете скачивать файлы
Анализ веб сайтов Яндекс.Метрика