Затерянные во льдах / Arctic (Джо Пенна) [2018, драма, приключения, BDRip 1080p | iTunes]

Ответить на тему
Статистика раздачи [Обновить пиров]
Размер:  9,87 GB   |    Зарегистрирован:  2 месяца 22 дня   |    .torrent скачан:  20 раз
Сидов:  2215  [  0 KB/s  ]   Личеров:  129  [  0 KB/s  ]   Подробная статистика пиров
 
   
 
 
Автор Сообщение

Skorp10n ®

Оффлайн

 Активный раздающий 1 Активный раздающий 2
 Активный релизер 1000 Активный релизер 1500 Активный релизер 2000 Активный релизер 250 Активный релизер 3000 Активный релизер 500 Активный релизер 5000 Активный релизер Фильмов (1000) Активный релизер Фильмов (300) Активный релизер Фильмов (600) Активный Форумчанин 1 Активный Форумчанин 2 Активный Форумчанин 3 Активный Форумчанин 4 Друг трекера Карма 1000 Карма 1500 Карма 3000 Карма 500 Меценат Ни дня без новостей Орденосец 1 степени Орденосец 2 степени Орденосец 3 степени Почетный орденосец Почетный репортер С Новым 2016 Годом! С Новым 2017 Годом! С Новым 2018 Годом! С Новым 2019 Годом! Супер Мега Контер Квейк ТОП-10

Пол: Мужской

Стаж: 3 года 11 месяцев

Наличие запрета:

Сообщений: 10847

Откуда: Free-Tor.com

Отдача: не определено

Загрузка: не определено

Нажми

Создавать темы 24-Апр-2019 23:39

[Цитировать]

Информация о фильме- Название: Затерянные во льдах
Оригинальное название: Arctic
Год выхода: 2018
Жанр: Драма, приключения
Режиссер: Джо Пенна
В ролях: Мадс Миккельсен, Мария Тельма Смарадоттир-О фильме:-В арктической пустыне — ледяной, снежной, оторванной от мира, где температура воздуха может опускаться до 70⁰С, Хаксли, пилот потерпевшего крушение самолёта, отчаянно борется за жизнь. Он научился справляться с холодом, охотиться, чтобы прокормить себя. В этих условиях ему предстоит заботиться о спасательнице, которая попала в шторм и разбилась. Девушка серьёзно ранена, времени ждать помощи нет: Хаксли вместе с умирающей отправляется в путь.- -Страна: Исландия
Студия: Armory Films, Pegasus Pictures, Union Entertainment Group
Продолжительность: 01:38:06
Перевод: Дублированный | iTunes-Файл-Качество: BDRip 1080p | iTunes
Видео: AVC/H.264, 1920x804, ~12,5 Мbps, 23.976 fps
Звук:
Аудио 1: AC3, 6 ch, 384 Kbps - Русский
Аудио 2: DTS, 6 ch, 1509 Kbps - Английский
Субтитры: Русские (полные), английские (полные, SDH)-

Mediainfo

-Общее
Уникальный идентификатор : 338953546591260086151395586433787559496 (0xFF001419783BB942BE31131E219AFE48)
Полное имя : Arctic.2018.BDRip.1080p.mkv
Формат : Matroska
Версия формата : Version 4
Размер файла : 9,87 Гбайт
Продолжительность : 1 ч. 38 м.
Общий поток : 14,4 Мбит/сек
Название фильма : Arctic.2018.BDRip.1080p
Дата кодирования : UTC 2019-04-24 18:29:21
Программа кодирования : mkvmerge v23.0.0 ('The Bride Said No') 64-bit
Библиотека кодирования : libebml v1.3.6 + libmatroska v1.4.9
Видео
Идентификатор : 1
Формат : AVC
Формат/Информация : Advanced Video Codec
Профиль формата : [email protected]
Настройки формата : CABAC / 5 Ref Frames
Параметр CABAC формата : Да
Параметр RefFrames формата : 5 кадров
Идентификатор кодека : V_MPEG4/ISO/AVC
Продолжительность : 1 ч. 38 м.
Битрейт : 12,5 Мбит/сек
Ширина : 1920 пикселей
Высота : 804 пикселя
Соотношение сторон : 2,40:1
Режим частоты кадров : Постоянный
Частота кадров : 23,976 (24000/1001) кадра/сек
Цветовое пространство : YUV
Субдискретизация насыщенности : 4:2:0
Битовая глубина : 8 бит
Тип развёртки : Прогрессивная
Бит/(Пиксели*Кадры) : 0.338
Размер потока : 8,57 Гбайт (87%)
Заголовок : HDC
Библиотека кодирования : x264 core 148 r2665kMod a01e339
Настройки программы : cabac=1 / ref=5 / deblock=1:-3:-3 / analyse=0x3:0x133 / me=umh / subme=11 / psy=1 / fade_compensate=0.00 / psy_rd=0.85:0.00 / mixed_ref=1 / me_range=48 / chroma_me=1 / trellis=2 / 8x8dct=1 / cqm=0 / deadzone=21,11 / fast_pskip=0 / chroma_qp_offset=-2 / threads=24 / lookahead_threads=4 / sliced_threads=0 / nr=0 / decimate=0 / interlaced=0 / bluray_compat=0 / constrained_intra=0 / fgo=0 / bframes=8 / b_pyramid=2 / b_adapt=2 / b_bias=0 / direct=3 / weightb=1 / open_gop=0 / weightp=2 / keyint=240 / keyint_min=24 / scenecut=40 / intra_refresh=0 / rc=2pass / mbtree=0 / bitrate=12500 / ratetol=1.0 / qcomp=0.70 / qpmin=0 / qpmax=69 / qpstep=4 / cplxblur=20.0 / qblur=0.5 / ip_ratio=1.20 / pb_ratio=1.20 / aq=3:0.80
Язык : English
Default : Да
Forced : Нет
Аудио #1
Идентификатор : 2
Формат : AC-3
Формат/Информация : Audio Coding 3
Коммерческое название : Dolby Digital
Идентификатор кодека : A_AC3
Продолжительность : 1 ч. 38 м.
Вид битрейта : Постоянный
Битрейт : 384 Кбит/сек
Каналы : 6 каналов
Channel layout : L R C LFE Ls Rs
Частота : 48,0 КГц
Частота кадров : 31,250 кадров/сек (1536 SPF)
Битовая глубина : 16 бит
Метод сжатия : С потерями
Размер потока : 269 Мбайт (3%)
Заголовок : DUB | iTunes
Язык : Russian
ServiceKind : Complete Main
Default : Да
Forced : Нет
Аудио #2
Идентификатор : 3
Формат : DTS
Формат/Информация : Digital Theater Systems
Идентификатор кодека : A_DTS
Продолжительность : 1 ч. 38 м.
Вид битрейта : Постоянный
Битрейт : 1509 Кбит/сек
Каналы : 6 каналов
Channel layout : C L R Ls Rs LFE
Частота : 48,0 КГц
Частота кадров : 93,750 кадра/сек (512 SPF)
Битовая глубина : 24 бит
Метод сжатия : С потерями
Размер потока : 1,03 Гбайт (10%)
Язык : English
Default : Нет
Forced : Нет
Текст #1
Идентификатор : 4
Формат : UTF-8
Идентификатор кодека : S_TEXT/UTF8
Идентификатор кодека/Информация : UTF-8 Plain Text
Продолжительность : 1 ч. 31 м.
Битрейт : 5 бит/сек
ElementCount : 132
Размер потока : 3,76 Кбайт (0%)
Заголовок : Full
Язык : Russian
Default : Нет
Forced : Нет
Текст #2
Идентификатор : 5
Формат : UTF-8
Идентификатор кодека : S_TEXT/UTF8
Идентификатор кодека/Информация : UTF-8 Plain Text
Продолжительность : 1 ч. 25 м.
Битрейт : 2 бит/сек
ElementCount : 127
Размер потока : 1,87 Кбайт (0%)
Заголовок : Full
Язык : English
Default : Нет
Forced : Нет
Текст #3
Идентификатор : 6
Формат : UTF-8
Идентификатор кодека : S_TEXT/UTF8
Идентификатор кодека/Информация : UTF-8 Plain Text
Продолжительность : 1 ч. 31 м.
Битрейт : 6 бит/сек
ElementCount : 312
Размер потока : 4,54 Кбайт (0%)
Заголовок : SDH
Язык : English
Default : Нет
Forced : Нет
Меню
00:00:00.000 : en:00:00:00.000
00:05:09.893 : en:00:05:09.893
00:09:31.112 : en:00:09:31.112
00:14:27.033 : en:00:14:27.033
00:20:48.289 : en:00:20:48.289
00:23:42.254 : en:00:23:42.254
00:30:56.229 : en:00:30:56.229
00:37:04.639 : en:00:37:04.639
00:42:31.632 : en:00:42:31.632
00:48:00.127 : en:00:48:00.127
00:50:30.819 : en:00:50:30.819
00:56:30.095 : en:00:56:30.095
01:02:47.430 : en:01:02:47.430
01:06:19.684 : en:01:06:19.684
01:10:20.258 : en:01:10:20.258
01:13:42.501 : en:01:13:42.501
01:18:53.270 : en:01:18:53.270
01:22:54.928 : en:01:22:54.928
01:26:28.725 : en:01:26:28.725
01:32:47.645 : en:01:32:47.645-
-

Скриншоты

--
-
[free-tor.info].t20846.torrent 
Торрент: Зарегистрирован [ 2019-04-24 23:39 ] · 194C8309C5B732B95828CCA5057F3552BFFCA15A

Скачать .torrent

Скачать .torrent

50 KB

Статус: проверено
.torrent скачан: 20 раз
Размер: 9,87 GB
Правила
Neo001(25-Апр-19)
Похожие темы

[Профиль] [ЛС]
Показать сообщения:    
Ответить на тему

Текущее время: 17-Июл 03:07

Часовой пояс: UTC + 4



Вы не можете начинать темы
Вы не можете отвечать на сообщения
Вы не можете редактировать свои сообщения
Вы не можете удалять свои сообщения
Вы не можете голосовать в опросах
Вы не можете прикреплять файлы к сообщениям
Вы можете скачивать файлы
Анализ веб сайтов Яндекс.Метрика