Время возмездия / Destroyer (Карин Кусама) [2018, боевик, триллер, драма, криминал, детектив, BDRip 1080p | D, P | iTunes]

Ответить на тему
Статистика раздачи [Обновить пиров]
Размер:  18,22 GB   |    Зарегистрирован:  2 месяца 15 дней   |    .torrent скачан:  11 раз
Сидов:  53  [  0 KB/s  ]   Подробная статистика пиров
 
   
 
 
Автор Сообщение

Skorp10n ®

Оффлайн

 Активный раздающий 1 Активный раздающий 2
 Активный релизер 1000 Активный релизер 1500 Активный релизер 2000 Активный релизер 250 Активный релизер 3000 Активный релизер 500 Активный релизер 5000 Активный релизер Фильмов (1000) Активный релизер Фильмов (300) Активный релизер Фильмов (600) Активный Форумчанин 1 Активный Форумчанин 2 Активный Форумчанин 3 Активный Форумчанин 4 Друг трекера Карма 1000 Карма 1500 Карма 3000 Карма 500 Меценат Ни дня без новостей Орденосец 1 степени Орденосец 2 степени Орденосец 3 степени Почетный орденосец Почетный репортер С Новым 2016 Годом! С Новым 2017 Годом! С Новым 2018 Годом! С Новым 2019 Годом! Супер Мега Контер Квейк ТОП-10

Пол: Мужской

Стаж: 3 года 11 месяцев

Наличие запрета:

Сообщений: 10847

Откуда: Free-Tor.com

Отдача: не определено

Загрузка: не определено

Нажми

Создавать темы 30-Апр-2019 13:17

[Цитировать]

Информация о фильме- Название: Время возмездия
Оригинальное название: Destroyer
Год выхода: 2018
Жанр: Боевик, триллер, драма, криминал, детектив
Режиссер: Карин Кусама
В ролях: Николь Кидман, Тоби Кеббелл, Татьяна Маслани, Себастьян Стэн, Скут МакНэйри, Брэдли Уитфорд, Тоби Хасс, Джеймс Джордан, Бо Напп, Джэйд Петтиджон-О фильме:-Внедренная в преступную банду Лос-Анджелеса хрупкая Эрин невольно влюбляется в своего напарника. Однако её жизнь меняется навсегда, когда тщательно подготовленная спецоперация неожиданно идет не по плану. Спустя несколько лет прошлое вновь настигнет девушку, но уже сильную и безжалостную. Грядет время возмездия…- -Страна: США
Студия: 30West, Automatik Entertainment
Продолжительность: 02:00:57
Перевод:
Профессиональный (полное дублирование) | iTunes
Профессиональный (многоголосый, закадровый) | HDRezka Studio-Файл-Качество: BDRip 1080p
Формат: MKV
Кодек: MPEG-4 AVC
Видео: 1920x800 (2,40:1), 23,976 fps, MPEG-4 AVC ~ 18,0 Мbps avg, 0.489 bit/pixel
Аудио: AC3, 48 kHz, 6 ch, ~384.00 kbps avg | русский | iTunes
Аудио: DTS, 48 kHz, 6 ch, ~1509.00 kbps avg | русский | HDRezka
Studio

Аудио: AC3, 48 kHz, 2 ch, ~160.00 kbps avg | украинский | iTunes
Аудио: DTS, 48 kHz, 6 ch, ~1509.00.00 kbps avg | английский | Оригинал-Субтитры: Русские (Full), Английские (Full, SDH)-

Инфо-файл

-Общее
Уникальный идентификатор : 170410303440417059704445604668702556987 (0x8033D4A3B22780BBEA21D4643725833B)
Полное имя : Destroyer.2018.1080p.BluRay.x264.DD.5.1.Rus.Ukr.Eng.mkv
Формат : Matroska
Версия формата : Version 4 / Version 2
Размер файла : 18,2 Гбайт
Продолжительность : 2 ч. 0 м.
Общий поток : 21,6 Мбит/сек
Название фильма : Время возмездия / Destroyer (2018)
Дата кодирования : UTC 2019-04-30 07:02:49
Программа кодирования : mkvmerge v27.0.0 ('Metropolis') 64-bit
Библиотека кодирования : libebml v1.3.6 + libmatroska v1.4.9
Обложка : Yes
Attachments : cover.jpg
Видео
Идентификатор : 1
Формат : AVC
Формат/Информация : Advanced Video Codec
Профиль формата : [email protected]
Настройки формата : CABAC / 5 Ref Frames
Параметр CABAC формата : Да
Параметр RefFrames формата : 5 кадров
Идентификатор кодека : V_MPEG4/ISO/AVC
Продолжительность : 2 ч. 0 м.
Битрейт : 18,0 Мбит/сек
Ширина : 1920 пикселей
Высота : 800 пикселей
Соотношение сторон : 2,40:1
Режим частоты кадров : Постоянный
Частота кадров : 23,976 (24000/1001) кадра/сек
Цветовое пространство : YUV
Субдискретизация насыщенности : 4:2:0
Битовая глубина : 8 бит
Тип развёртки : Прогрессивная
Бит/(Пиксели*Кадры) : 0.489
Размер потока : 15,2 Гбайт (83%)
Заголовок : iFT
Библиотека кодирования : x264 core 155 r2867+74 66b5600 t_mod_Custom_2 [[email protected] X86_64]
Настройки программы : cabac=1 / ref=5 / deblock=1:-3:-3 / analyse=0x3:0x133 / me=umh / subme=11 / psy=1 / fade_compensate=0.00 / psy_rd=1.00:0.00 / mixed_ref=1 / me_range=32 / chroma_me=1 / trellis=2 / 8x8dct=1 / cqm=0 / deadzone=21,11 / fast_pskip=0 / chroma_qp_offset=-2 / threads=18 / lookahead_threads=3 / sliced_threads=0 / nr=0 / decimate=0 / interlaced=0 / bluray_compat=0 / constrained_intra=0 / fgo=0 / bframes=8 / b_pyramid=2 / b_adapt=2 / b_bias=0 / direct=3 / weightb=1 / open_gop=0 / weightp=2 / keyint=250 / keyint_min=23 / scenecut=40 / intra_refresh=0 / rc=2pass / mbtree=0 / bitrate=18000 / ratetol=1.0 / qcomp=0.60 / qpmin=0:0:0 / qpmax=69:69:69 / qpstep=4 / cplxblur=20.0 / qblur=0.5 / ip_ratio=1.30 / pb_ratio=1.20 / aq=3:0.80 / aq-sensitivity=10.00 / aq-factor=1.00:1.00:1.00 / aq2=0 / aq3=0
Язык : English
Default : Да
Forced : Нет
Цветовой диапазон : Limited
Коэффициенты матрицы : BT.709
Аудио #1
Идентификатор : 2
Формат : AC-3
Формат/Информация : Audio Coding 3
Идентификатор кодека : A_AC3
Продолжительность : 2 ч. 0 м.
Вид битрейта : Постоянный
Битрейт : 384 Кбит/сек
Каналы : 6 каналов
Расположение каналов : Front: L C R, Side: L R, LFE
Частота : 48,0 КГц
Частота кадров : 31,250 кадров/сек (1536 SPF)
Битовая глубина : 16 бит
Метод сжатия : С потерями
Размер потока : 332 Мбайт (2%)
Заголовок : iTunes
Язык : Russian
Default : Да
Forced : Нет
Аудио #2
Идентификатор : 3
Формат : DTS
Формат/Информация : Digital Theater Systems
Идентификатор кодека : A_DTS
Продолжительность : 2 ч. 0 м.
Вид битрейта : Постоянный
Битрейт : 1509 Кбит/сек
Каналы : 6 каналов
Расположение каналов : Front: L C R, Side: L R, LFE
Частота : 48,0 КГц
Частота кадров : 93,750 кадра/сек (512 SPF)
Битовая глубина : 24 бит
Метод сжатия : С потерями
Размер потока : 1,28 Гбайт (7%)
Заголовок : HDRezka Studio
Язык : Russian
Default : Нет
Forced : Нет
Аудио #3
Идентификатор : 4
Формат : AC-3
Формат/Информация : Audio Coding 3
Идентификатор кодека : A_AC3
Продолжительность : 2 ч. 0 м.
Вид битрейта : Постоянный
Битрейт : 160 Кбит/сек
Каналы : 2 канала
Расположение каналов : Front: L R
Частота : 48,0 КГц
Частота кадров : 31,250 кадров/сек (1536 SPF)
Битовая глубина : 16 бит
Метод сжатия : С потерями
Размер потока : 138 Мбайт (1%)
Язык : Ukrainian
Default : Нет
Forced : Нет
Аудио #4
Идентификатор : 5
Формат : DTS
Формат/Информация : Digital Theater Systems
Идентификатор кодека : A_DTS
Продолжительность : 2 ч. 0 м.
Вид битрейта : Постоянный
Битрейт : 1509 Кбит/сек
Каналы : 6 каналов
Расположение каналов : Front: L C R, Side: L R, LFE
Частота : 48,0 КГц
Частота кадров : 93,750 кадра/сек (512 SPF)
Битовая глубина : 24 бит
Метод сжатия : С потерями
Размер потока : 1,27 Гбайт (7%)
Заголовок : Original
Язык : English
Default : Нет
Forced : Нет
Текст #1
Идентификатор : 6
Формат : UTF-8
Идентификатор кодека : S_TEXT/UTF8
Идентификатор кодека/Информация : UTF-8 Plain Text
Продолжительность : 1 ч. 53 м.
Битрейт : 62 бит/сек
ElementCount : 1162
Размер потока : 52,0 Кбайт (0%)
Заголовок : Full [FOCS]
Язык : Russian
Default : Нет
Forced : Нет
Текст #2
Идентификатор : 7
Формат : UTF-8
Идентификатор кодека : S_TEXT/UTF8
Идентификатор кодека/Информация : UTF-8 Plain Text
Продолжительность : 1 ч. 59 м.
Битрейт : 37 бит/сек
ElementCount : 1200
Размер потока : 32,6 Кбайт (0%)
Заголовок : Full
Язык : English
Default : Нет
Forced : Нет
Текст #3
Идентификатор : 8
Формат : UTF-8
Идентификатор кодека : S_TEXT/UTF8
Идентификатор кодека/Информация : UTF-8 Plain Text
Продолжительность : 1 ч. 59 м.
Битрейт : 43 бит/сек
ElementCount : 1416
Размер потока : 38,1 Кбайт (0%)
Заголовок : SDH
Язык : English
Default : Нет
Forced : Нет
Меню
00:00:00.000 : :Capítulo 01
00:03:03.975 : :Capítulo 02
00:07:04.382 : :Capítulo 03
00:13:54.375 : :Capítulo 04
00:16:46.631 : :Capítulo 05
00:22:16.961 : :Capítulo 06
00:27:02.830 : :Capítulo 07
00:30:16.606 : :Capítulo 08
00:34:01.164 : :Capítulo 09
00:40:25.632 : :Capítulo 10
00:50:06.253 : :Capítulo 11
00:53:03.555 : :Capítulo 12
00:56:58.915 : :Capítulo 13
01:05:17.914 : :Capítulo 14
01:08:13.715 : :Capítulo 15
01:11:42.924 : :Capítulo 16
01:15:24.979 : :Capítulo 17
01:19:43.070 : :Capítulo 18
01:24:10.295 : :Capítulo 19
01:27:42.299 : :Capítulo 20
01:35:08.244 : :Capítulo 21
01:43:31.705 : :Capítulo 22
01:45:46.507 : :Capítulo 23
01:54:03.420 : :Capítulo 24-
-

Скриншоты

--
-
[free-tor.info].t21057.torrent 
Торрент: Зарегистрирован [ 2019-04-30 13:17 ] · 207776E6B142B4A798A8754E8A9F7099696BCC16

Скачать .torrent

Скачать .torrent

46 KB

Статус: проверено
.torrent скачан: 11 раз
Размер: 18,22 GB
Правила
Похожие темы

[Профиль] [ЛС]
Показать сообщения:    
Ответить на тему

Текущее время: 16-Июл 04:45

Часовой пояс: UTC + 4



Вы не можете начинать темы
Вы не можете отвечать на сообщения
Вы не можете редактировать свои сообщения
Вы не можете удалять свои сообщения
Вы не можете голосовать в опросах
Вы не можете прикреплять файлы к сообщениям
Вы можете скачивать файлы
Анализ веб сайтов Яндекс.Метрика