Навстречу тьме / Into the Dark (Пол Дэвис, Патрик Люссье, Софи Такал) [01х01-08 из 12] [2018-2019, ужасы, триллер, WEB-DL 1080p | TVShows]

Ответить на тему
Статистика раздачи [Обновить пиров]
Размер:  24,08 GB   |    Зарегистрирован:  2 месяца 6 дней   |    .torrent скачан:  8 раз
Сидов:  3  [  0 KB/s  ]   Личеров:  15  [  0 KB/s  ]   Подробная статистика пиров
 
   
 
 
Автор Сообщение

Skorp10n ®

Оффлайн

 Активный раздающий 1 Активный раздающий 2
 Активный релизер 1000 Активный релизер 1500 Активный релизер 2000 Активный релизер 250 Активный релизер 3000 Активный релизер 500 Активный релизер 5000 Активный релизер Фильмов (1000) Активный релизер Фильмов (300) Активный релизер Фильмов (600) Активный Форумчанин 1 Активный Форумчанин 2 Активный Форумчанин 3 Активный Форумчанин 4 Друг трекера Карма 1000 Карма 1500 Карма 3000 Карма 500 Меценат Ни дня без новостей Орденосец 1 степени Орденосец 2 степени Орденосец 3 степени Почетный орденосец Почетный репортер С Новым 2016 Годом! С Новым 2017 Годом! С Новым 2018 Годом! С Новым 2019 Годом! Супер Мега Контер Квейк ТОП-10

Пол: Мужской

Стаж: 3 года 11 месяцев

Наличие запрета:

Сообщений: 11003

Откуда: Free-Tor.com

Отдача: не определено

Загрузка: не определено

Нажми

Создавать темы 15-Май-2019 13:19

[Цитировать]

Навстречу тьме / Into the Dark- Страна: США
Производство: Blumhouse Television
Год выпуска: 2018-2019
Жанр: ужасы, триллер
Продолжительность: х ~01:22:00-Режиссеры: Пол Дэвис, Патрик Люссье, Софи Такал
В ролях: Дайан Селлерс, Аврора Перрино, Том Бейтман, Няша Хатенди, Дермот Малруни, Сьюки Уотерхаус, Стефани Беатриз, Натали Мартинес-Описание: Антология ужасов, каждый эпизод которой связан с известным праздником...- -Перевод: Профессиональный (многоголосый, закадровый) | TVShows
Субтитры: английские-Качество: WEB-DL 1080p
Формат: МКV
Видео кодек: AVC
Аудио кодек: АС3 | AAC-LC-SBR
Видео: 1920x1080 (16:9), 23.976 fps, MPEG-4 AVC ~4 265 kbps avg
Аудио №1: 48.0 kHz, AC3 Dolby Digital, 2/0 (L,R) ch, ~192 kbps | RUS / MVO
Аудио №2: 48.0 kHz, Advanced Audio Codec LC SBR, 2/0 (L,R) ch, ~64 kbps | ENG
Формат субтитров: UTF-8 Plain Text-Дата премьеры (мир): 5 октября 2018- -

Media Info

-General
Уникальный идентификатор : 181597105622501163089376875257124835683 (0x889E549207B560CDD569123CA8335163)
Полное имя : Into.the.Dark.S01E01.1080p.TVShows.mkv
Формат : Matroska
Версия формата : Version 4
Размер файла : 2,61 Гбайт
Продолжительность : 1 ч. 22 м.
Общий поток : 4526 Кбит/сек
Дата кодирования : UTC 2018-12-12 06:45:55
Программа кодирования : mkvmerge v28.2.0 ('The Awakening') 64-bit
Библиотека кодирования : libebml v1.3.6 + libmatroska v1.4.9
Видео
Идентификатор : 1
Формат : AVC
Формат/Информация : Advanced Video Codec
Профиль формата : [email protected]
Настройки формата : CABAC / 4 Ref Frames
Параметр CABAC формата : Да
Параметр RefFrames формата : 4 кадра
Идентификатор кодека : V_MPEG4/ISO/AVC
Продолжительность : 1 ч. 22 м.
Битрейт : 4268 Кбит/сек
Ширина : 1920 пикселей
Высота : 1080 пикселей
Соотношение сторон : 16:9
Режим частоты кадров : Постоянный
Частота кадров : 23,976 (24000/1001) кадра/сек
Цветовое пространство : YUV
Субдискретизация насыщенности : 4:2:0
Битовая глубина : 8 бит
Тип развёртки : Прогрессивная
Бит/(Пиксели*Кадры) : 0.086
Размер потока : 2,46 Гбайт (94%)
Default : Да
Forced : Нет
Аудио #1
Идентификатор : 2
Формат : AC-3
Формат/Информация : Audio Coding 3
Коммерческое название : Dolby Digital
Идентификатор кодека : A_AC3
Продолжительность : 1 ч. 22 м.
Вид битрейта : Постоянный
Битрейт : 192 Кбит/сек
Каналы : 2 канала
Channel layout : L R
Частота : 48,0 КГц
Частота кадров : 31,250 кадров/сек (1536 SPF)
Битовая глубина : 16 бит
Метод сжатия : С потерями
Размер потока : 113 Мбайт (4%)
Заголовок : TVShows
Язык : Russian
Default : Да
Forced : Да
Аудио #2
Идентификатор : 3
Формат : AAC LC SBR
Формат/Информация : Advanced Audio Codec Low Complexity with Spectral Band Replication
Коммерческое название : HE-AAC
Настройки формата : Explicit
Идентификатор кодека : A_AAC-2
Продолжительность : 1 ч. 22 м.
Битрейт : 64,0 Кбит/сек
Каналы : 2 канала
Channel layout : L R
Частота : 48,0 КГц
Частота кадров : 23,438 кадра/сек (2048 SPF)
Метод сжатия : С потерями
Размер потока : 37,8 Мбайт (1%)
Заголовок : Original
Язык : English
Default : Нет
Forced : Нет
Текст
Идентификатор : 4
Формат : UTF-8
Идентификатор кодека : S_TEXT/UTF8
Идентификатор кодека/Информация : UTF-8 Plain Text
Продолжительность : 1 ч. 22 м.
Битрейт : 72 бит/сек
ElementCount : 2049
Размер потока : 43,9 Кбайт (0%)
Заголовок : English
Язык : English
Default : Нет
Forced : Нет-
-

Скриншоты

--
-
[free-tor.info].t21360.torrent 
Торрент: Зарегистрирован [ 2019-05-15 13:19 ] · 69F387D6DEBAF15CC8B167A0425A987A8090908B

Скачать .torrent

Скачать .torrent

122 KB

Статус: проверено
.torrent скачан: 8 раз
Размер: 24,08 GB
Правила

[Профиль] [ЛС]
Показать сообщения:    
Ответить на тему

Текущее время: 22-Июл 01:17

Часовой пояс: UTC + 4



Вы не можете начинать темы
Вы не можете отвечать на сообщения
Вы не можете редактировать свои сообщения
Вы не можете удалять свои сообщения
Вы не можете голосовать в опросах
Вы не можете прикреплять файлы к сообщениям
Вы можете скачивать файлы
Анализ веб сайтов Яндекс.Метрика