Гори, гори ясно / Brightburn (Дэвид Яровески) [2019, ужасы, фантастика, триллер, драма, TS 720p | КОЛОБОК]

Ответить на тему
Статистика раздачи [Обновить пиров]
Размер:  2,42 GB   |    Зарегистрирован:  1 месяц 1 день   |    .torrent скачан:  9 раз
Сидов:  141  [  0 KB/s  ]   Личеров:  12  [  0 KB/s  ]   Подробная статистика пиров
 
   
 
 
Автор Сообщение

Skorp10n ®

Оффлайн

 Активный раздающий 1 Активный раздающий 2
 Активный релизер 1000 Активный релизер 1500 Активный релизер 2000 Активный релизер 250 Активный релизер 3000 Активный релизер 500 Активный релизер 5000 Активный релизер Фильмов (1000) Активный релизер Фильмов (300) Активный релизер Фильмов (600) Активный Форумчанин 1 Активный Форумчанин 2 Активный Форумчанин 3 Активный Форумчанин 4 Друг трекера Карма 1000 Карма 1500 Карма 3000 Карма 500 Меценат Ни дня без новостей Орденосец 1 степени Орденосец 2 степени Орденосец 3 степени Почетный орденосец Почетный репортер С Новым 2016 Годом! С Новым 2017 Годом! С Новым 2018 Годом! С Новым 2019 Годом! Супер Мега Контер Квейк ТОП-10

Пол: Мужской

Стаж: 3 года 10 месяцев

Наличие запрета:

Сообщений: 10765

Откуда: Free-Tor.com

Отдача: не определено

Загрузка: не определено

Нажми

Создавать темы 18-Май-2019 23:24

[Цитировать]

Год выхода: 2019
Страна: США
Жанр: ужасы, фантастика, триллер, драма
Продолжительность: 01:25:23
Перевод: Любительский (многоголосый) | [Колобок]
Субтитры: Вшиты (на иностранную речь)
Режиссер: Дэвид Яровески
В главных ролях: Элизабет Бэнкс, Джексон А. Данн, Дэвид Денман, Дженнифер Холлэнд, Мэтт Джонс, Мередит Хагнер, Бекки Уолстром, Грегори Алан Уильямс, Стив Эйджи, Эмми Хантер-Описание-Что, если потерпевший крушение на Земле инопланетный ребенок со сверхспособностями вместо того, чтобы стать героем для человечества, окажется чем-то гораздо более зловещим?- -Качество: TS 720p
Формат: MKV
Видео кодек: AVC
Аудио кодек: AC3
Видео: AVC / 1280x536 / 23.976 fps / 3674 kb/s
Аудио: AC3 / 384 Кбит/с / 2 ch / 48.0 KHz-Примечание: Присутствует реклама!-

MediaInfo

-
General
Unique ID                   : 226663790556042745048865915087568746691 (0xAA85DBAFFB5A9B728930D6DF3C8FB8C3)
Complete name               : G:\Torrent\Экранки\Brightburn.2O18.Pk.TS.72Op.mkv
Format                      : Matroska
Format version              : Version 2
File size                   : 2.42 GiB
Duration                    : 1 h 25 min
Overall bit rate mode       : Variable
Overall bit rate            : 4 060 kb/s
Encoded date                : UTC 2019-05-18 04:54:49
Writing application         : mkvmerge v8.3.0 ('Over the Horizon') 64bit
Writing library             : libebml v1.3.1 + libmatroska v1.4.2
Video
ID                          : 1
Format                      : AVC
Format/Info                 : Advanced Video Codec
Format profile              : [email protected]
Format settings             : CABAC / 4 Ref Frames
Format settings, CABAC      : Yes
Format settings, Reference  : 4 frames
Codec ID                    : V_MPEG4/ISO/AVC
Duration                    : 1 h 25 min
Bit rate mode               : Variable
Bit rate                    : 3 674 kb/s
Maximum bit rate            : 4 000 kb/s
Width                       : 1 280 pixels
Height                      : 536 pixels
Display aspect ratio        : 2.40:1
Frame rate mode             : Constant
Frame rate                  : 23.976 (24000/1001) FPS
Standard                    : Component
Color space                 : YUV
Chroma subsampling          : 4:2:0
Bit depth                   : 8 bits
Scan type                   : Progressive
Bits/(Pixel*Frame)          : 0.223
Stream size                 : 2.19 GiB (90%)
Default                     : Yes
Forced                      : No
Color range                 : Limited
Color primaries             : BT.709
Transfer characteristics    : BT.709
Matrix coefficients         : BT.709
Audio
ID                          : 2
Format                      : AC-3
Format/Info                 : Audio Coding 3
Commercial name             : Dolby Digital
Codec ID                    : A_AC3
Duration                    : 1 h 25 min
Bit rate mode               : Constant
Bit rate                    : 384 kb/s
Channel(s)                  : 2 channels
Channel layout              : L R
Sampling rate               : 48.0 kHz
Frame rate                  : 31.250 FPS (1536 SPF)
Bit depth                   : 16 bits
Compression mode            : Lossy
Stream size                 : 235 MiB (9%)
Service kind                : Complete Main
Default                     : Yes
Forced                      : No
-
-

Скриншоты

--
-
[free-tor.info].t21382.torrent 
Торрент: Зарегистрирован [ 2019-05-18 23:24 ] · 7F3EBBA09C383486E3EFA96D896500E10B1FF8FA

Скачать .torrent

Скачать .torrent

13 KB

Статус: T временная
.torrent скачан: 9 раз
Размер: 2,42 GB
Правила
Neo001(19-Май-19)

[Профиль] [ЛС]
Показать сообщения:    
Ответить на тему

Текущее время: 20-Июн 03:13

Часовой пояс: UTC + 4



Вы не можете начинать темы
Вы не можете отвечать на сообщения
Вы не можете редактировать свои сообщения
Вы не можете удалять свои сообщения
Вы не можете голосовать в опросах
Вы не можете прикреплять файлы к сообщениям
Вы можете скачивать файлы
Анализ веб сайтов Яндекс.Метрика