Игра престолов / Game of Thrones (Дэвид Наттер, Мигель Сапочник, Дэвид Бениофф, Д.Б. Уайсс) [S08] [2019, фэнтези, боевик, драма, мелодрама, приключения, WEB-DL 720p | Amedia]

Ответить на тему
Статистика раздачи [Обновить пиров]
Размер:  11,52 GB   |    Зарегистрирован:  30 дней   |    .torrent скачан:  16 раз
Сидов:  806  [  0 KB/s  ]   Личеров:  1240  [  0 KB/s  ]   Подробная статистика пиров
 
   
 
 
Автор Сообщение

Skorp10n ®

Оффлайн

 Активный раздающий 1 Активный раздающий 2
 Активный релизер 1000 Активный релизер 1500 Активный релизер 2000 Активный релизер 250 Активный релизер 3000 Активный релизер 500 Активный релизер 5000 Активный релизер Фильмов (1000) Активный релизер Фильмов (300) Активный релизер Фильмов (600) Активный Форумчанин 1 Активный Форумчанин 2 Активный Форумчанин 3 Активный Форумчанин 4 Друг трекера Карма 1000 Карма 1500 Карма 3000 Карма 500 Меценат Ни дня без новостей Орденосец 1 степени Орденосец 2 степени Орденосец 3 степени Почетный орденосец Почетный репортер С Новым 2016 Годом! С Новым 2017 Годом! С Новым 2018 Годом! С Новым 2019 Годом! Супер Мега Контер Квейк ТОП-10

Пол: Мужской

Стаж: 3 года 10 месяцев

Наличие запрета:

Сообщений: 10765

Откуда: Free-Tor.com

Отдача: не определено

Загрузка: не определено

Нажми

Создавать темы 20-Май-2019 18:33

[Цитировать]

Игра престолов / Game of Thrones- Страна: США Великобритания
Производство: Bighead Littlehead, Generator Entertainment, Television 360, Home Box Office (HBO)
Год выпуска: 2019
Жанр: фэнтези, боевик, драма, мелодрама, приключения
Продолжительность: 6х ~00:56:00-Режиссеры: Дэвид Наттер, Мигель Сапочник, Дэвид Бениофф, Д.Б. Уайсс
В ролях: Питер Динклэйдж, Николай Костер-Вальдау, Лина Хиди, Эмилия Кларк, Кит Харингтон, Софи Тернер, Мэйси Уильямс, Лиам Каннингэм, Алфи Аллен-Описание: К концу подходит время благоденствия, и лето, длившееся почти десятилетие, угасает. Вокруг средоточия власти Семи королевств, Железного трона, зреет заговор, и в это непростое время король решает искать поддержки у друга юности Эддарда Старка. В мире, где все — от короля до наемника — рвутся к власти, плетут интриги и готовы вонзить нож в спину, есть место и благородству, состраданию и любви. Между тем, никто не замечает пробуждение тьмы из легенд далеко на Севере — и лишь Стена защищает живых к югу от неё...- -Перевод: Профессиональный (многоголосый, закадровый) | Novamedia по заказу Amedia
Субтитры: русские (forced + full), английские (SDH)-Качество: WEB-DL 720p | AMAZON
Формат: МКV
Видео кодек: AVC
Аудио кодек: АС3 | E-AC3
Видео: 1280x720 (16:9), 23.976 fps, MPEG-4 AVC ~3 026 kbps avg
Аудио №1: 48.0 kHz, AC3 Dolby Digital, 2/0 (L,R) ch, ~192 kbps | RUS
Аудио №2: 48.0 kHz, Enhanced Audio Coding 3, 3/2 (L,C,R,l,r) + LFE ch, ~640 kbps | ENG
Формат субтитров: UTF-8 Plain Text-Дата премьеры (мир): 14 апреля 2019- -

Дополнительная информация

-Релиз от: -
-

Media Info

-General
Unique ID : 61255003923634474178667133382906265255 (0x2E1548DD832213F86ED02B2D7BB6BEA7)
Complete name : Game.of.Thrones.S08E01.Winterfell.720p.AMZN.WEB-DL.H.264-EniaHD.mkv
Format : Matroska
Format version : Version 4 / Version 2
File size : 1.50 GiB
Duration : 55 min 47 s
Overall bit rate : 3 857 kb/s
Movie name : Game of Thrones 08x01 (Winterfell) - EniaHD
Encoded date : UTC 2019-04-22 08:25:11
Writing application : mkvmerge v33.1.0 ('Primrose') 64-bit
Writing library : libebml v1.3.7 + libmatroska v1.5.0
Video
ID : 1
Format : AVC
Format/Info : Advanced Video Codec
Format profile : [email protected]
Format settings : CABAC / 4 Ref Frames
Format settings, CABAC : Yes
Format settings, ReFrames : 4 frames
Codec ID : V_MPEG4/ISO/AVC
Duration : 55 min 45 s
Bit rate mode : Constant
Bit rate : 3 026 kb/s
Nominal bit rate : 6 000 kb/s
Width : 1 280 pixels
Height : 720 pixels
Display aspect ratio : 16:9
Frame rate mode : Constant
Frame rate : 23.976 (24000/1001) FPS
Color space : YUV
Chroma subsampling : 4:2:0
Bit depth : 8 bits
Scan type : Progressive
Bits/(Pixel*Frame) : 0.137
Stream size : 1.18 GiB (78%)
Default : Yes
Forced : No
Color range : Limited
Color primaries : BT.709
Transfer characteristics : BT.709
Matrix coefficients : BT.709
Audio #1
ID : 2
Format : AC-3
Format/Info : Audio Coding 3
Codec ID : A_AC3
Duration : 55 min 45 s
Bit rate mode : Constant
Bit rate : 192 kb/s
Channel(s) : 2 channels
Channel positions : Front: L R
Sampling rate : 48.0 kHz
Frame rate : 31.250 FPS (1536 SPF)
Bit depth : 16 bits
Compression mode : Lossy
Stream size : 76.6 MiB (5%)
Title : Novamedia
Language : Russian
Service kind : Complete Main
Default : Yes
Forced : No
Audio #2
ID : 3
Format : E-AC-3
Format/Info : Enhanced Audio Coding 3
Codec ID : A_EAC3
Duration : 55 min 45 s
Bit rate mode : Constant
Bit rate : 640 kb/s
Channel(s) : 6 channels
Channel positions : Front: L C R, Side: L R, LFE
Sampling rate : 48.0 kHz
Frame rate : 187.500 FPS (256 SPF)
Compression mode : Lossy
Delay relative to video : 8 ms
Stream size : 255 MiB (17%)
Language : English
Service kind : Complete Main
Default : No
Forced : No
Text #1
ID : 4
Format : UTF-8
Codec ID : S_TEXT/UTF8
Codec ID/Info : UTF-8 Plain Text
Duration : 32 min 10 s
Bit rate : 7 b/s
Count of elements : 28
Stream size : 1.70 KiB (0%)
Title : Forced
Language : Russian
Default : Yes
Forced : Yes
Text #2
ID : 5
Format : UTF-8
Codec ID : S_TEXT/UTF8
Codec ID/Info : UTF-8 Plain Text
Duration : 52 min 45 s
Bit rate : 57 b/s
Count of elements : 461
Stream size : 22.2 KiB (0%)
Title : Full
Language : Russian
Default : No
Forced : No
Text #3
ID : 6
Format : UTF-8
Codec ID : S_TEXT/UTF8
Codec ID/Info : UTF-8 Plain Text
Duration : 55 min 41 s
Bit rate : 45 b/s
Count of elements : 665
Stream size : 18.4 KiB (0%)
Title : SDH
Language : English
Default : No
Forced : No
Menu
00:00:00.000 : en:Ratings
00:00:03.944 : en:Previously On
00:01:59.944 : en:Studio Logo
00:02:05.944 : en:Opening Credits
00:03:52.944 : en:Arrival in Winterfell
00:09:46.944 : en:Fight together or die
00:12:53.944 : en:Sansa sees through the lies
00:15:36.944 : en:A tearful reunion
00:17:45.944 : en:A queen must be earned
00:22:40.944 : en:Cersei asks a favor of Bronn
00:25:25.944 : en:What is dead may never die
00:29:24.944 : en:Hold on to whatever you can
00:36:41.944 : en:A forge for dragonglass
00:39:11.944 : en:Sansa is frustrated with Jon's choice
00:41:03.944 : en:The head of House Tarly
00:44:32.944 : en:It's time for Jon to know the truth
00:48:40.944 : en:A message from the Night King
00:52:28.944 : en:An unexpected visitor
00:53:43.944 : en:End Credits
00:55:03.944 : en:Next Time
00:55:40.944 : en:Inside Game of Thrones-
-

Скриншоты

--
-
[free-tor.info].t21384.torrent 
Торрент: Зарегистрирован [ 2019-05-20 18:33 ] · FBC81DE20087FBBCF631CD6A74006778023B0CB9

Скачать .torrent

Скачать .torrent

117 KB

Статус: проверено
.torrent скачан: 16 раз
Размер: 11,52 GB
Правила
Shandr(20-Май-19)
Похожие темы

[Профиль] [ЛС]
Показать сообщения:    
Ответить на тему

Текущее время: 20-Июн 03:22

Часовой пояс: UTC + 4



Вы не можете начинать темы
Вы не можете отвечать на сообщения
Вы не можете редактировать свои сообщения
Вы не можете удалять свои сообщения
Вы не можете голосовать в опросах
Вы не можете прикреплять файлы к сообщениям
Вы можете скачивать файлы
Анализ веб сайтов Яндекс.Метрика