Бэтмен против Черепашек-ниндзя / Batman vs. Teenage Mutant Ninja Turtles (Джейк Касторена / Jake Castorena) [2019, мультфильм, фантастика, фэнтези, боевик, комедия, криминал, приключения, WEB-DL 1080p от NewSeriesHD | P, L]

Ответить на тему
Статистика раздачи [Обновить пиров]
Размер:  3,83 GB   |    Зарегистрирован:  1 месяц 4 дня   |    .torrent скачан:  10 раз
Сидов:  42  [  0 KB/s  ]   Личеров:  3  [  0 KB/s  ]   Подробная статистика пиров
 
   
 
 
Автор Сообщение

Skorp10n ®

Оффлайн

 Активный раздающий 1 Активный раздающий 2 Активный релизер 1000 Активный релизер 1500 Активный релизер 2000 Активный релизер 250 Активный релизер 3000 Активный релизер 500 Активный релизер 5000 Активный релизер Фильмов (1000) Активный релизер Фильмов (300) Активный релизер Фильмов (600) Активный Форумчанин 1 Активный Форумчанин 2 Активный Форумчанин 3 Активный Форумчанин 4 Друг трекера Карма 1000 Карма 1500 Карма 3000 Карма 500 Меценат Ни дня без новостей Орденосец 1 степени Орденосец 2 степени Орденосец 3 степени Почетный орденосец Почетный репортер С Новым 2016 Годом! С Новым 2017 Годом! С Новым 2018 Годом! С Новым 2019 Годом! Супер Мега Контер Квейк ТОП-10

Пол: Мужской

Стаж: 3 года 11 месяцев

Наличие запрета:

Сообщений: 11003

Откуда: Free-Tor.com

Отдача: не определено

Загрузка: не определено

Нажми

Создавать темы 15-Июн-2019 20:39

[Цитировать]

Информация о фильме- Название: Бэтмен против Черепашек-ниндзя
Оригинальное название: Batman vs. Teenage Mutant Ninja Turtles
Год выхода: 2019
Жанр: мультфильм, фантастика, фэнтези, боевик, комедия, криминал, приключения
Режиссер: Джейк Касторена / Jake Castorena
Роли озвучивали: Трой Бэйкер, Эрик Бауза, Даррен Крисс, Кайл Муни, Барон Вон, Карлос Аласраки, Кэс Анвар, Рэйчел Блум, Джон Ди Маджио-О фильме:-Бэтмен объединяется с Черепашками-ниндзя, чтобы остановить Шредера и Ра’с аль Гула...--Страна: США
Студия: DC Entertainment, Warner Bros. Animation, Nickelodeon, Dr. Movie
Продолжительность: 01:27:07-Файл-Качество: WEB-DL 1080p by CMRG
Кодек: H264
Видео: 1912x1072 (16:9), 23.976 fps, MPEG-4 AVC ~4 828 kbps avg
Аудио: AC3 5.1, 48.0 kHz, 448 kbps | Любительский (многоголосый, закадровый) Train Studio
Аудио: AC3 2.0, 48.0 kHz, 192 kbps | Профессиональный (многоголосый, закадровый) HDrezka Studio
Аудио: AC3 2.0, 48.0 kHz, 192 kbps | Любительский (многоголосый, закадровый) Flarrow Films
Аудио: AAС 2.0, 44.1 kHz, 128 kbps | Любительский (многоголосый, закадровый) ZM-SHOW
Аудио: AC3 5.1, 48.0 kHz, 384 kbps | Eng
Субтитры: Русские от UGN SUBZ Translators и Английские (srt)-

Об озвучках

-Train Studio
Перевод: Мария Ниживенко.
Роли озвучивали: Маргарита Корш, Алёна Соколова, Алексей Никитин, Дмитрий Зубарев, Михаил Глушковский, Станислав Черсков и Михаил Шорыгин.
Звукорежиссер: Михаил Бабин.
Flarrow Films
Перевод: UGN SUBZ Translators.
Роли озвучивали: Глеб Петров, Андрей Стакионис, Семён Евсиков, Ахилл Намазов, Денис Кузьмичёв, Евгений Леонов, Рина Чернышёва, Андрей Блегиневич, Дмитрий Кравченко, Рута Новикова и Лола Бугурт.
Тайминг и работа со звуком: Денис Юрьев.
ZM-SHOW
Перевод: UGN SUBZ Translators.-
-

Скриншоты

--
-

Media Info

-General
Unique ID : 221911739315689093433204261399705551864 (0xA6F2A578E4537FACA7384085B40A03F8)
Complete name : E:[NewSeriesHD] Batman vs Teenage Mutant Ninja Turtles (2019)[NewSeriesHD] Batman vs Teenage Mutant Ninja Turtles [Train Studio]+[HDrezka Studio]+[Flarrow Films]+[ZM-SHOW]+[ENG] [Sub RUS+ENG] {WEB-DL 1080p by CMRG}.mkv
Format : Matroska
Format version : Version 4 / Version 2
File size : 3.83 GiB
Duration : 1 h 27 min
Overall bit rate : 6 281 kb/s
Movie name : NewSeriesHD
Encoded date : UTC 2019-06-06 11:19:29
Writing application : mkvmerge v8.0.0 ('Til The Day That I Die') 32bit
Writing library : libebml v1.3.1 + libmatroska v1.4.2
Video
ID : 1
Format : AVC
Format/Info : Advanced Video Codec
Format profile : [email protected]
Format settings : CABAC / 4 Ref Frames
Format settings, CABAC : Yes
Format settings, ReFrames : 4 frames
Codec ID : V_MPEG4/ISO/AVC
Duration : 1 h 27 min
Bit rate : 4 932 kb/s
Width : 1 912 pixels
Height : 1 072 pixels
Display aspect ratio : 16:9
Frame rate mode : Constant
Frame rate : 23.976 (23976/1000) FPS
Color space : YUV
Chroma subsampling : 4:2:0
Bit depth : 8 bits
Scan type : Progressive
Bits/(Pixel*Frame) : 0.100
Stream size : 3.00 GiB (78%)
Language : English
Default : Yes
Forced : No
Color range : Limited
Color primaries : BT.709
Transfer characteristics : BT.709
Matrix coefficients : BT.709
Audio #1
ID : 2
Format : AC-3
Format/Info : Audio Coding 3
Commercial name : Dolby Digital
Codec ID : A_AC3
Duration : 1 h 27 min
Bit rate mode : Constant
Bit rate : 448 kb/s
Channel(s) : 6 channels
Channel positions : Front: L C R, Side: L R, LFE
Sampling rate : 48.0 kHz
Frame rate : 31.250 FPS (1536 SPF)
Bit depth : 16 bits
Compression mode : Lossy
Delay relative to video : -43 ms
Stream size : 279 MiB (7%)
Title : MVO, Train Studio
Language : Russian
Service kind : Complete Main
Default : Yes
Forced : No
Audio #2
ID : 3
Format : AC-3
Format/Info : Audio Coding 3
Commercial name : Dolby Digital
Codec ID : A_AC3
Duration : 1 h 27 min
Bit rate mode : Constant
Bit rate : 192 kb/s
Channel(s) : 2 channels
Channel positions : Front: L R
Sampling rate : 48.0 kHz
Frame rate : 31.250 FPS (1536 SPF)
Bit depth : 16 bits
Compression mode : Lossy
Delay relative to video : -43 ms
Stream size : 119 MiB (3%)
Title : MVO, HDrezka Studio
Language : Russian
Service kind : Complete Main
Default : No
Forced : No
Audio #3
ID : 4
Format : AC-3
Format/Info : Audio Coding 3
Commercial name : Dolby Digital
Codec ID : A_AC3
Duration : 1 h 27 min
Bit rate mode : Constant
Bit rate : 192 kb/s
Channel(s) : 2 channels
Channel positions : Front: L R
Sampling rate : 48.0 kHz
Frame rate : 31.250 FPS (1536 SPF)
Bit depth : 16 bits
Compression mode : Lossy
Delay relative to video : -43 ms
Stream size : 119 MiB (3%)
Title : MVO, Flarrow Films
Language : Russian
Service kind : Complete Main
Default : No
Forced : No
Audio #4
ID : 5
Format : AAC
Format/Info : Advanced Audio Codec
Format profile : LC
Codec ID : A_AAC-2
Duration : 1 h 27 min
Bit rate : 136 kb/s
Channel(s) : 2 channels
Channel positions : Front: L R
Sampling rate : 44.1 kHz
Frame rate : 43.066 FPS (1024 SPF)
Compression mode : Lossy
Delay relative to video : -43 ms
Stream size : 85.1 MiB (2%)
Title : MVO, ZM-SHOW
Language : Russian
Default : No
Forced : No
Audio #5
ID : 6
Format : AC-3
Format/Info : Audio Coding 3
Commercial name : Dolby Digital
Codec ID : A_AC3
Duration : 1 h 27 min
Bit rate mode : Constant
Bit rate : 384 kb/s
Channel(s) : 6 channels
Channel positions : Front: L C R, Side: L R, LFE
Sampling rate : 48.0 kHz
Frame rate : 31.250 FPS (1536 SPF)
Bit depth : 16 bits
Compression mode : Lossy
Delay relative to video : -43 ms
Stream size : 239 MiB (6%)
Title : Original
Language : English
Service kind : Complete Main
Default : No
Forced : No
Text #1
ID : 7
Format : UTF-8
Codec ID : S_TEXT/UTF8
Codec ID/Info : UTF-8 Plain Text
Duration : 1 h 26 min
Bit rate : 92 b/s
Count of elements : 1032
Stream size : 58.2 KiB (0%)
Title : UGN SUBZ Translators
Language : Russian
Default : No
Forced : No
Text #2
ID : 8
Format : UTF-8
Codec ID : S_TEXT/UTF8
Codec ID/Info : UTF-8 Plain Text
Duration : 1 h 26 min
Bit rate : 58 b/s
Count of elements : 1387
Stream size : 37.3 KiB (0%)
Title : Original
Language : English
Default : No
Forced : No
Menu
00:00:00.000 : en:1
00:09:08.000 : en:2
00:21:13.000 : en:3
00:32:21.000 : en:4
00:41:15.000 : en:5
00:50:38.000 : en:6
01:00:42.000 : en:7
01:11:20.000 : en:8
01:23:55.000 : en:9-
-Релиз от: NewSeriesHD-
[free-tor.info].t21692.torrent 
Торрент: Зарегистрирован [ 2019-06-15 20:39 ] · DF6BD3C77997632325784A8476A5278BC71C6B30

Скачать .torrent

Скачать .torrent

20 KB

Статус: проверено
.torrent скачан: 10 раз
Размер: 3,83 GB
Правила
Neo001(17-Июн-19), MrStarscream(26-Июн-19)
Похожие темы

[Профиль] [ЛС]

MrStarscream

Оффлайн

 Активный раздающий 1
 Активный раздающий 2 Ни дня без новостей ТОП-10

Пол: Мужской

Стаж: 4 года 4 месяца

Наличие запрета:

Сообщений: 197

Откуда: free-tor.com

Отдача: не определено

Загрузка: не определено

Нажми

Создавать темы 26-Июн-2019 11:55 (спустя 10 дней)

[Цитировать]

Невозможно скачать(
[Профиль] [ЛС]

4udaki

Оффлайн



Пол: Мужской

Стаж: 4 года 8 месяцев

Наличие запрета:

Сообщений: 3657

Откуда: korsars.info

Отдача: 2 Mb/s

Загрузка: 20 Mb/s

Нажми

Создавать темы 26-Июн-2019 11:58 (спустя 3 минуты)

[Цитировать]

MrStarscream,
Всё скачивается, используй новый домен:
http://korsars.info/viewtopic.php?t=21692
P.S. про free-tor можно забыть Подмигнуть
[Профиль] [ЛС]
Показать сообщения:    
Ответить на тему

Текущее время: 20-Июл 19:36

Часовой пояс: UTC + 4



Вы не можете начинать темы
Вы не можете отвечать на сообщения
Вы не можете редактировать свои сообщения
Вы не можете удалять свои сообщения
Вы не можете голосовать в опросах
Вы не можете прикреплять файлы к сообщениям
Вы можете скачивать файлы
Анализ веб сайтов Яндекс.Метрика