Что, если / What If / Сезон: 1 / Серии: 1-10 из 10 (Филлип Нойс, Джессика Борсицки, Мэгги Кили) [2019, США, триллер, драма, WEB-DL 1080p] Dub (SDI Media) + Original + Sub (Rus, Eng)

Ответить на тему
Статистика раздачи [Обновить пиров]
Размер:  15,13 GB   |    Зарегистрирован:  15 дней   |    .torrent скачан:  3 раза
Сидов:  30  [  0 KB/s  ]   Личеров:  5  [  0 KB/s  ]   Подробная статистика пиров
 
   
 
 
Автор Сообщение

Magnat ®

Оффлайн

 Активный релизер 1000 Активный релизер 1500
 Активный релизер 2000 Активный релизер 250 Активный релизер 500 Орденосец 1 степени

Пол: Мужской

Стаж: 3 года 8 месяцев

Наличие запрета:

Сообщений: 2405

Откуда: xxxtorrents.pro

Отдача: 80 Mb/s

Загрузка: 80 Mb/s

Нажми

Создавать темы 04-Июл-2019 20:57

[Цитировать]

Что, если / What If / Сезон: 1 / Серии: 1-10 из 10- Страна: США
Год выпуска: 2019
Производство: Netflix, Warner Bros. Television и др.
Жанр: триллер, драма
Продолжительность: ~00:55:00 серия
Перевод: Профессиональный (дублированный) SDI Media
Режиссёр: Филлип Нойс, Джессика Борсицки, Мэгги Кили
В ролях: Рене Зеллвегер, Дэйв Эннэйбл, Хуан Кастано, Блейк Дженнер, Джейн Леви, Даниэлла Пинеда, Кит Пауэрс, Луис Хертэм, Саамер Усмани-Состоятельная немолодая женщина Анна делает паре молодоженов из Сан-Франциско, отчаянно нуждающихся в деньгах, крайне рискованное предложение. За их согласием следует целая вереница событий, которая приводит к самым неожиданным результатам. В центре событий оказываются не только главные герои, но и их близкие люди, друзья и коллеги.
Анна мастерски манипулирует людьми, и в итоге изначально положительные герои совершают некрасивые, а порой и подлые поступки.
Качество: WEB-DL 1080p
Формат: MKV
Видео: MPEG4 AVC Video, H264, 16:9, 1920x1080, 23.976 fps, ~3500 kbps
Аудио: Russian (E-AC3, 6 ch, 640 kbps, 16 bits, 48.0 KHz) - Dub
Аудио 2: English (E-AC3, 6 ch, 640 kbps, 16 bits, 48.0 KHz) - оригинал
Субтитры: русские (full(Netflix), forced), английские, немецкие, чешские, арабские, корейские и другие.

MI

General
Unique ID : 21347342441793767661174037338332652469 (0x100F593E1F8636DA3427AE91988CE3B5)
Complete name : D:\What.If.S01.1080p.NF.WEB-DL.Rus.Eng_TeamHD\What.If.S01E01.Pilot.1080p.NF.WEB-DL.Rus.Eng_TeamHD.mkv
Format : Matroska
Format version : Version 4 / Version 2
File size : 1.87 GiB
Duration : 56 min 59 s
Overall bit rate mode : Variable
Overall bit rate : 4 700 kb/s
Encoded date : UTC 2019-05-24 12:12:17
Writing application : mkvmerge v32.0.0 ('Astral Progressions') 64-bit
Writing library : libebml v1.3.7 + libmatroska v1.5.0
Video
ID : 1
Format : AVC
Format/Info : Advanced Video Codec
Format profile : [email protected]
Format settings : CABAC / 3 Ref Frames
Format settings, CABAC : Yes
Format settings, ReFrames : 3 frames
Codec ID : V_MPEG4/ISO/AVC
Duration : 56 min 59 s
Bit rate mode : Variable
Bit rate : 3 480 kb/s
Maximum bit rate : 5 220 kb/s
Width : 1 920 pixels
Height : 1 080 pixels
Display aspect ratio : 16:9
Frame rate mode : Constant
Frame rate : 23.976 (24000/1001) FPS
Color space : YUV
Chroma subsampling : 4:2:0
Bit depth : 8 bits
Scan type : Progressive
Bits/(Pixel*Frame) : 0.070
Stream size : 1.36 GiB (73%)
Writing library : x264 core 148 r2715 7e75228
Encoding settings : cabac=1 / ref=3 / deblock=1:0:0 / analyse=0x1:0x111 / me=umh / subme=10 / psy=1 / psy_rd=1.00:0.00 / mixed_ref=1 / me_range=24 / chroma_me=1 / trellis=2 / 8x8dct=0 / cqm=0 / deadzone=21,11 / fast_pskip=1 / chroma_qp_offset=-2 / threads=8 / lookahead_threads=1 / sliced_threads=0 / nr=0 / decimate=1 / interlaced=0 / bluray_compat=0 / stitchable=1 / constrained_intra=0 / bframes=2 / b_pyramid=0 / b_adapt=2 / b_bias=0 / direct=3 / weightb=1 / open_gop=0 / weightp=2 / keyint=48 / keyint_min=25 / scenecut=0 / intra_refresh=0 / rc_lookahead=48 / rc=2pass / mbtree=1 / bitrate=3480 / ratetol=1.0 / qcomp=0.50 / qpmin=6 / qpmax=51 / qpstep=4 / cplxblur=20.0 / qblur=0.5 / vbv_maxrate=5220 / vbv_bufsize=6960 / nal_hrd=vbr / filler=0 / ip_ratio=1.40 / aq=1:1.00
Default : Yes
Forced : No
Audio #1
ID : 2
Format : E-AC-3
Format/Info : Enhanced Audio Coding 3
Codec ID : A_EAC3
Duration : 56 min 59 s
Bit rate mode : Constant
Bit rate : 640 kb/s
Channel(s) : 6 channels
Channel positions : Front: L C R, Side: L R, LFE
Sampling rate : 48.0 kHz
Frame rate : 187.500 FPS (256 SPF)
Compression mode : Lossy
Stream size : 261 MiB (14%)
Language : Russian
Service kind : Complete Main
Default : Yes
Forced : No
Audio #2
ID : 3
Format : E-AC-3
Format/Info : Enhanced Audio Coding 3
Codec ID : A_EAC3
Duration : 56 min 59 s
Bit rate mode : Constant
Bit rate : 640 kb/s
Channel(s) : 6 channels
Channel positions : Front: L C R, Side: L R, LFE
Sampling rate : 48.0 kHz
Frame rate : 187.500 FPS (256 SPF)
Compression mode : Lossy
Stream size : 261 MiB (14%)
Title : English
Language : English
Service kind : Complete Main
Default : No
Forced : No
Text #1
ID : 4
Format : UTF-8
Codec ID : S_TEXT/UTF8
Codec ID/Info : UTF-8 Plain Text
Duration : 54 min 24 s
Bit rate : 2 b/s
Count of elements : 23
Stream size : 988 Bytes (0%)
Title : Forced
Language : Russian
Default : Yes
Forced : Yes
Text #2
ID : 5
Format : UTF-8
Codec ID : S_TEXT/UTF8
Codec ID/Info : UTF-8 Plain Text
Duration : 55 min 42 s
Bit rate : 75 b/s
Count of elements : 934
Stream size : 30.7 KiB (0%)
Title : SDH
Language : English
Default : No
Forced : No
Text #3
ID : 6
Format : UTF-8
Codec ID : S_TEXT/UTF8
Codec ID/Info : UTF-8 Plain Text
Duration : 54 min 24 s
Bit rate : 118 b/s
Count of elements : 814
Stream size : 47.1 KiB (0%)
Language : Arabic
Default : No
Forced : No
Text #4
ID : 7
Format : UTF-8
Codec ID : S_TEXT/UTF8
Codec ID/Info : UTF-8 Plain Text
Duration : 54 min 54 s
Bit rate : 60 b/s
Count of elements : 676
Stream size : 24.3 KiB (0%)
Language : Czech
Default : No
Forced : No
Text #5
ID : 8
Format : UTF-8
Codec ID : S_TEXT/UTF8
Codec ID/Info : UTF-8 Plain Text
Duration : 55 min 54 s
Bit rate : 61 b/s
Count of elements : 742
Stream size : 25.4 KiB (0%)
Language : Danish
Default : No
Forced : No
Text #6
ID : 9
Format : UTF-8
Codec ID : S_TEXT/UTF8
Codec ID/Info : UTF-8 Plain Text
Duration : 54 min 24 s
Bit rate : 62 b/s
Count of elements : 722
Stream size : 25.0 KiB (0%)
Language : German
Default : No
Forced : No
Text #7
ID : 10
Format : UTF-8
Codec ID : S_TEXT/UTF8
Codec ID/Info : UTF-8 Plain Text
Duration : 54 min 23 s
Bit rate : 101 b/s
Count of elements : 818
Stream size : 40.4 KiB (0%)
Language : Greek
Default : No
Forced : No
Text #8
ID : 11
Format : UTF-8
Codec ID : S_TEXT/UTF8
Codec ID/Info : UTF-8 Plain Text
Duration : 54 min 23 s
Bit rate : 64 b/s
Count of elements : 749
Stream size : 25.9 KiB (0%)
Language : Spanish
Default : No
Forced : No
Text #9
ID : 12
Format : UTF-8
Codec ID : S_TEXT/UTF8
Codec ID/Info : UTF-8 Plain Text
Duration : 55 min 54 s
Bit rate : 57 b/s
Count of elements : 767
Stream size : 23.5 KiB (0%)
Title : European
Language : Spanish
Default : No
Forced : No
Text #10
ID : 13
Format : UTF-8
Codec ID : S_TEXT/UTF8
Codec ID/Info : UTF-8 Plain Text
Duration : 55 min 54 s
Bit rate : 63 b/s
Count of elements : 763
Stream size : 26.2 KiB (0%)
Language : Finnish
Default : No
Forced : No
Text #11
ID : 14
Format : UTF-8
Codec ID : S_TEXT/UTF8
Codec ID/Info : UTF-8 Plain Text
Duration : 55 min 54 s
Bit rate : 60 b/s
Count of elements : 772
Stream size : 24.6 KiB (0%)
Language : French
Default : No
Forced : No
Text #12
ID : 15
Format : UTF-8
Codec ID : S_TEXT/UTF8
Codec ID/Info : UTF-8 Plain Text
Duration : 55 min 54 s
Bit rate : 97 b/s
Count of elements : 771
Stream size : 40.1 KiB (0%)
Language : Hebrew
Default : No
Forced : No
Text #13
ID : 16
Format : UTF-8
Codec ID : S_TEXT/UTF8
Codec ID/Info : UTF-8 Plain Text
Duration : 54 min 24 s
Bit rate : 58 b/s
Count of elements : 813
Stream size : 23.1 KiB (0%)
Language : Hungarian
Default : No
Forced : No
Text #14
ID : 17
Format : UTF-8
Codec ID : S_TEXT/UTF8
Codec ID/Info : UTF-8 Plain Text
Duration : 54 min 24 s
Bit rate : 68 b/s
Count of elements : 816
Stream size : 27.1 KiB (0%)
Language : Indonesian
Default : No
Forced : No
Text #15
ID : 18
Format : UTF-8
Codec ID : S_TEXT/UTF8
Codec ID/Info : UTF-8 Plain Text
Duration : 54 min 23 s
Bit rate : 59 b/s
Count of elements : 728
Stream size : 23.8 KiB (0%)
Language : Italian
Default : No
Forced : No
Text #16
ID : 19
Format : UTF-8
Codec ID : S_TEXT/UTF8
Codec ID/Info : UTF-8 Plain Text
Duration : 55 min 54 s
Bit rate : 59 b/s
Count of elements : 796
Stream size : 24.5 KiB (0%)
Language : Japanese
Default : No
Forced : No
Text #17
ID : 20
Format : UTF-8
Codec ID : S_TEXT/UTF8
Codec ID/Info : UTF-8 Plain Text
Duration : 54 min 24 s
Bit rate : 74 b/s
Count of elements : 817
Stream size : 29.7 KiB (0%)
Language : Korean
Default : No
Forced : No
Text #18
ID : 21
Format : UTF-8
Codec ID : S_TEXT/UTF8
Codec ID/Info : UTF-8 Plain Text
Duration : 55 min 55 s
Bit rate : 60 b/s
Count of elements : 670
Stream size : 24.6 KiB (0%)
Language : Norwegian Bokmal
Default : No
Forced : No
Text #19
ID : 22
Format : UTF-8
Codec ID : S_TEXT/UTF8
Codec ID/Info : UTF-8 Plain Text
Duration : 56 min 2 s
Bit rate : 54 b/s
Count of elements : 643
Stream size : 22.5 KiB (0%)
Language : Dutch
Default : No
Forced : No
Text #20
ID : 23
Format : UTF-8
Codec ID : S_TEXT/UTF8
Codec ID/Info : UTF-8 Plain Text
Duration : 54 min 24 s
Bit rate : 53 b/s
Count of elements : 742
Stream size : 21.5 KiB (0%)
Language : Polish
Default : No
Forced : No
Text #21
ID : 24
Format : UTF-8
Codec ID : S_TEXT/UTF8
Codec ID/Info : UTF-8 Plain Text
Duration : 55 min 56 s
Bit rate : 59 b/s
Count of elements : 772
Stream size : 24.4 KiB (0%)
Language : Portuguese
Default : No
Forced : No
Text #22
ID : 25
Format : UTF-8
Codec ID : S_TEXT/UTF8
Codec ID/Info : UTF-8 Plain Text
Duration : 54 min 51 s
Bit rate : 56 b/s
Count of elements : 801
Stream size : 22.8 KiB (0%)
Title : Brazilian
Language : Portuguese
Default : No
Forced : No
Text #23
ID : 26
Format : UTF-8
Codec ID : S_TEXT/UTF8
Codec ID/Info : UTF-8 Plain Text
Duration : 54 min 24 s
Bit rate : 67 b/s
Count of elements : 763
Stream size : 26.7 KiB (0%)
Language : Romanian
Default : No
Forced : No
Text #24
ID : 27
Format : UTF-8
Codec ID : S_TEXT/UTF8
Codec ID/Info : UTF-8 Plain Text
Duration : 54 min 24 s
Bit rate : 101 b/s
Count of elements : 812
Stream size : 40.4 KiB (0%)
Language : Russian
Default : No
Forced : No
Text #25
ID : 28
Format : UTF-8
Codec ID : S_TEXT/UTF8
Codec ID/Info : UTF-8 Plain Text
Duration : 54 min 23 s
Bit rate : 60 b/s
Count of elements : 691
Stream size : 24.0 KiB (0%)
Language : Swedish
Default : No
Forced : No
Text #26
ID : 29
Format : UTF-8
Codec ID : S_TEXT/UTF8
Codec ID/Info : UTF-8 Plain Text
Duration : 54 min 24 s
Bit rate : 164 b/s
Count of elements : 823
Stream size : 65.6 KiB (0%)
Language : Thai
Default : No
Forced : No
Text #27
ID : 30
Format : UTF-8
Codec ID : S_TEXT/UTF8
Codec ID/Info : UTF-8 Plain Text
Duration : 54 min 24 s
Bit rate : 63 b/s
Count of elements : 808
Stream size : 25.4 KiB (0%)
Language : Turkish
Default : No
Forced : No
Text #28
ID : 31
Format : UTF-8
Codec ID : S_TEXT/UTF8
Codec ID/Info : UTF-8 Plain Text
Duration : 54 min 24 s
Bit rate : 93 b/s
Count of elements : 818
Stream size : 37.3 KiB (0%)
Language : Vietnamese
Default : No
Forced : No
Text #29
ID : 32
Format : UTF-8
Codec ID : S_TEXT/UTF8
Codec ID/Info : UTF-8 Plain Text
Duration : 54 min 24 s
Bit rate : 63 b/s
Count of elements : 815
Stream size : 25.3 KiB (0%)
Title : Simplified
Language : Chinese
Default : No
Forced : No
Text #30
ID : 33
Format : UTF-8
Codec ID : S_TEXT/UTF8
Codec ID/Info : UTF-8 Plain Text
Duration : 54 min 24 s
Bit rate : 65 b/s
Count of elements : 809
Stream size : 25.9 KiB (0%)
Title : Traditional
Language : Chinese
Default : No
Forced : No

Скриншоты

[free-tor.info].t21816.torrent 
Торрент: Зарегистрирован [ 2019-07-04 20:57 ] · CC0A73F0D27A89B8BC5BF170379983BD0FDD448F

Скачать .torrent

Скачать .torrent

77 KB

Статус: проверено
.torrent скачан: 3 раз
Размер: 15,13 GB
Правила
Похожие темы

[Профиль] [ЛС]
Показать сообщения:    
Ответить на тему

Текущее время: 20-Июл 20:01

Часовой пояс: UTC + 4



Вы не можете начинать темы
Вы не можете отвечать на сообщения
Вы не можете редактировать свои сообщения
Вы не можете удалять свои сообщения
Вы не можете голосовать в опросах
Вы не можете прикреплять файлы к сообщениям
Вы можете скачивать файлы
Анализ веб сайтов Яндекс.Метрика