Очень странные дела / Stranger Things (Мэтт Даффер, Росс Даффер, Шон Леви) [S03] [2019, ужасы, фантастика, фэнтези, триллер, драма, детектив, WEBRip 720p | Пифагор]

Ответить на тему
 
Автор Сообщение

Skorp10n ®

Оффлайн

 Активный раздающий 1 Активный раздающий 2
 Активный релизер 1000 Активный релизер 1500 Активный релизер 2000 Активный релизер 250 Активный релизер 3000 Активный релизер 500 Активный релизер 5000 Активный релизер Фильмов (1000) Активный релизер Фильмов (300) Активный релизер Фильмов (600) Активный Форумчанин 1 Активный Форумчанин 2 Активный Форумчанин 3 Активный Форумчанин 4 Друг трекера Карма 1000 Карма 1500 Карма 3000 Карма 500 Меценат Ни дня без новостей Орденосец 1 степени Орденосец 2 степени Орденосец 3 степени Почетный орденосец Почетный репортер С Новым 2016 Годом! С Новым 2017 Годом! С Новым 2018 Годом! С Новым 2019 Годом! Супер Мега Контер Квейк ТОП-10

Пол: Мужской

Стаж: 3 года 11 месяцев

Наличие запрета:

Сообщений: 11003

Откуда: Free-Tor.com

Отдача: не определено

Загрузка: не определено

Нажми

Создавать темы 06-Июл-2019 13:13

[Цитировать]

Информация о фильме- Название: Очень странные дела
Оригинальное название: Stranger Things
Год выхода: 2019
Жанр: Ужасы, фантастика, фэнтези, триллер, драма, детектив
Режиссер: Мэтт Даффер, Росс Даффер, Шон Леви
В ролях: Вайнона Райдер, Дэвид Харбор, Финн Вулфард, Милли Бобби Браун, Гейтен Матараццо, Калеб Маклафлин, Наталия Дайер, Чарли Хитон, Кара Буоно, Джо Кири и др.-О фильме:-1980-е годы, тихий провинциальный американский городок. Благоприятное течение местной жизни нарушает загадочное исчезновение подростка по имени Уилл. Выяснить обстоятельства дела полны решимости родные мальчика и местный шериф. Также события затрагивают лучшего друга Уилла — Майка. Он начинает собственное расследование. Майк уверен, что близок к разгадке, и теперь ему предстоит оказаться в эпицентре ожесточенной битвы потусторонних сил.- -Страна: США
Продолжительность: ~00:50:00
Перевод: Дублированный | Пифагор по заказу Netflix-Файл-Качество: WEBRip 720p
Формат: MKV
Видео: 1280x720, 23.976 fps, MPEG-4 AVC, ~3000-4000 kbps avg
Аудио 1: Russian: 48 kHz, AC3, 3/2 (L,C,R,l,r) + LFE ch, ~448 kbps avg
Аудио 2: English: 48 kHz, AC3, 3/2 (L,C,R,l,r) + LFE ch, ~448 kbps avg
Субтитры: Русские (forced, full), английские (full)-

MediaInfo

-General
Unique ID : 29127310757340189773835036251305232459 (0x15E9B74BB0E70CF4F44C44BD06B3484B)
Complete name : H:Stranger.Things.S03.720p.DUBStranger.Things.S03E01.Chapter.One.Suzie.Do.You.Copy.720p.mkv
Format : Matroska
Format version : Version 4
File size : 1.82 GiB
Duration : 50 min 33 s
Overall bit rate mode : Variable
Overall bit rate : 5 144 kb/s
Encoded date : UTC 2019-07-05 14:20:18
Writing application : mkvmerge v34.0.0 ('Sight and Seen') 32-bit
Writing library : libebml v1.3.7 + libmatroska v1.5.0
Video
ID : 1
Format : AVC
Format/Info : Advanced Video Codec
Format profile : [email protected]
Format settings : CABAC / 3 Ref Frames
Format settings, CABAC : Yes
Format settings, Reference : 3 frames
Codec ID : V_MPEG4/ISO/AVC
Duration : 50 min 33 s
Bit rate : 4 420 kb/s
Maximum bit rate : 6 630 kb/s
Width : 1 280 pixels
Height : 720 pixels
Display aspect ratio : 16:9
Frame rate mode : Constant
Frame rate : 23.976 (24000/1001) FPS
Color space : YUV
Chroma subsampling : 4:2:0
Bit depth : 8 bits
Scan type : Progressive
Bits/(Pixel*Frame) : 0.200
Stream size : 1.50 GiB (83%)
Writing library : x264 core 148 r2715 7e75228
Encoding settings : cabac=1 / ref=3 / deblock=1:0:0 / analyse=0x1:0x111 / me=umh / subme=10 / psy=1 / psy_rd=1.00:0.00 / mixed_ref=1 / me_range=24 / chroma_me=1 / trellis=2 / 8x8dct=0 / cqm=0 / deadzone=21,11 / fast_pskip=1 / chroma_qp_offset=-2 / threads=6 / lookahead_threads=1 / sliced_threads=0 / nr=0 / decimate=1 / interlaced=0 / bluray_compat=0 / stitchable=1 / constrained_intra=0 / bframes=2 / b_pyramid=0 / b_adapt=2 / b_bias=0 / direct=3 / weightb=1 / open_gop=0 / weightp=2 / keyint=250 / keyint_min=23 / scenecut=0 / intra_refresh=0 / rc_lookahead=48 / rc=2pass / mbtree=1 / bitrate=4420 / ratetol=1.0 / qcomp=0.50 / qpmin=6 / qpmax=51 / qpstep=4 / cplxblur=20.0 / qblur=0.5 / vbv_maxrate=6630 / vbv_bufsize=8840 / nal_hrd=vbr / filler=0 / ip_ratio=1.40 / aq=1:1.00
Default : Yes
Forced : No
Audio #1
ID : 2
Format : AC-3
Format/Info : Audio Coding 3
Commercial name : Dolby Digital
Codec ID : A_AC3
Duration : 50 min 32 s
Bit rate mode : Constant
Bit rate : 448 kb/s
Channel(s) : 6 channels
Channel layout : L R C LFE Ls Rs
Sampling rate : 48.0 kHz
Frame rate : 31.250 FPS (1536 SPF)
Bit depth : 16 bits
Compression mode : Lossy
Stream size : 162 MiB (9%)
Language : Russian
Service kind : Complete Main
Default : Yes
Forced : No
Audio #2
ID : 3
Format : AC-3
Format/Info : Audio Coding 3
Commercial name : Dolby Digital
Codec ID : A_AC3
Duration : 50 min 32 s
Bit rate mode : Constant
Bit rate : 448 kb/s
Channel(s) : 6 channels
Channel layout : L R C LFE Ls Rs
Sampling rate : 48.0 kHz
Frame rate : 31.250 FPS (1536 SPF)
Bit depth : 16 bits
Compression mode : Lossy
Stream size : 162 MiB (9%)
Language : English
Service kind : Complete Main
Default : No
Forced : No
Text #1
ID : 4
Format : UTF-8
Codec ID : S_TEXT/UTF8
Codec ID/Info : UTF-8 Plain Text
Duration : 36 min 52 s
Bit rate : 2 b/s
Count of elements : 15
Stream size : 673 Bytes (0%)
Title : forced
Language : Russian
Default : No
Forced : No
Text #2
ID : 5
Format : UTF-8
Codec ID : S_TEXT/UTF8
Codec ID/Info : UTF-8 Plain Text
Duration : 48 min 40 s
Bit rate : 60 b/s
Count of elements : 496
Stream size : 21.7 KiB (0%)
Title : full
Language : Russian
Default : No
Forced : No
Text #3
ID : 6
Format : UTF-8
Codec ID : S_TEXT/UTF8
Codec ID/Info : UTF-8 Plain Text
Duration : 42 min 52 s
Bit rate : 55 b/s
Count of elements : 622
Stream size : 17.5 KiB (0%)
Language : English
Default : No
Forced : No-
-

Скриншоты

--
-
[Профиль] [ЛС]
Показать сообщения:    
Ответить на тему

Текущее время: 20-Июл 19:45

Часовой пояс: UTC + 4



Вы не можете начинать темы
Вы не можете отвечать на сообщения
Вы не можете редактировать свои сообщения
Вы не можете удалять свои сообщения
Вы не можете голосовать в опросах
Вы не можете прикреплять файлы к сообщениям
Вы не можете скачивать файлы
Анализ веб сайтов Яндекс.Метрика