Очень странные дела / Stranger Things (Мэтт Даффер, Росс Даффер, Шон Леви) [S03] [2019, ужасы, фантастика, фэнтези, триллер, драма, детектив, WEB-DL 1080p | Пифагор]

Ответить на тему
 
Автор Сообщение

Skorp10n ®

Оффлайн

 Активный раздающий 1 Активный раздающий 2
 Активный релизер 1000 Активный релизер 1500 Активный релизер 2000 Активный релизер 250 Активный релизер 3000 Активный релизер 500 Активный релизер 5000 Активный релизер Фильмов (1000) Активный релизер Фильмов (300) Активный релизер Фильмов (600) Активный Форумчанин 1 Активный Форумчанин 2 Активный Форумчанин 3 Активный Форумчанин 4 Друг трекера Карма 1000 Карма 1500 Карма 3000 Карма 500 Меценат Ни дня без новостей Орденосец 1 степени Орденосец 2 степени Орденосец 3 степени Почетный орденосец Почетный репортер С Новым 2016 Годом! С Новым 2017 Годом! С Новым 2018 Годом! С Новым 2019 Годом! Супер Мега Контер Квейк ТОП-10

Пол: Мужской

Стаж: 3 года 11 месяцев

Наличие запрета:

Сообщений: 11003

Откуда: Free-Tor.com

Отдача: не определено

Загрузка: не определено

Нажми

Создавать темы 06-Июл-2019 13:13

[Цитировать]

Информация о фильме- Название: Очень странные дела
Оригинальное название: Stranger Things
Год выхода: 2019
Жанр: Ужасы, фантастика, фэнтези, триллер, драма, детектив
Страна: США
Перевод: Дублированный | Пифагор по заказу Netflix
Продолжительность: 8x ~ 00:50:00 мин
Режиссеры: Мэтт Даффер, Росс Даффер, Шон Леви
В ролях: Вайнона Райдер, Дэвид Харбор, Финн Вулфард, Милли Бобби Браун, Гейтен Матараццо, Калеб Маклафлин, Наталия Дайер, Чарли Хитон, Кара Буоно, Джо Кири и др.-О фильме: 1980-е годы, тихий провинциальный американский городок. Благоприятное течение местной жизни нарушает загадочное исчезновение подростка по имени Уилл. Выяснить обстоятельства дела полны решимости родные мальчика и местный шериф. Также события затрагивают лучшего друга Уилла — Майка. Он начинает собственное расследование. Майк уверен, что близок к разгадке, и теперь ему предстоит оказаться в эпицентре ожесточенной битвы потусторонних сил.- -Файл-Качество: WEB-DL 1080p
Видео: MPEG-4 AVC, 1920x1080, 5836 kbps, 23,976 fps
Звук#1: русский, E-AC3, 5.1 ch, 48 kHz, 640 kbps
Звук#2: английский, E-AC3, 5.1 ch, 48 kHz, 640 kbps
Субтитры: русские (форс., полные), английские (SDH)-

MI

-Общее
Уникальный идентификатор : 178455925720383687556456353943082162817 (0x86415C71B18095D0B625C1CDE8D2DA81)
Полное имя : E:Torrent2StrangerThingsS03StrangerThingsS03x01.mkv
Формат : Matroska
Версия формата : Version 4 / Version 2
Размер файла : 2,51 Гбайт
Продолжительность : 50 м. 32 с.
Общий поток : 7118 Кбит/сек
Дата кодирования : UTC 2019-07-04 10:18:53
Программа кодирования : mkvmerge v9.5.0 ('Quiet Fire') 64bit
Библиотека кодирования : libebml v1.3.4 + libmatroska v1.4.5
Видео
Идентификатор : 1
Формат : AVC
Формат/Информация : Advanced Video Codec
Профиль формата : [email protected]
Настройки формата : CABAC / 3 Ref Frames
Параметр CABAC формата : Да
Параметр RefFrames формата : 3 кадра
Идентификатор кодека : V_MPEG4/ISO/AVC
Продолжительность : 50 м. 32 с.
Битрейт : 5836 Кбит/сек
Ширина : 1920 пикселей
Высота : 1080 пикселей
Соотношение сторон : 16:9
Режим частоты кадров : Постоянный
Частота кадров : 23,976 (24000/1001) кадра/сек
Цветовое пространство : YUV
Субдискретизация насыщенности : 4:2:0
Битовая глубина : 8 бит
Тип развёртки : Прогрессивная
Бит/(Пиксели*Кадры) : 0.117
Размер потока : 2,06 Гбайт (82%)
Язык : English
Default : Да
Forced : Нет
Аудио #1
Идентификатор : 2
Формат : E-AC-3
Формат/Информация : Enhanced Audio Coding 3
Параметр Endianness формата : Big
Идентификатор кодека : A_EAC3
Продолжительность : 50 м. 32 с.
Вид битрейта : Постоянный
Битрейт : 640 Кбит/сек
Каналы : 6 каналов
Расположение каналов : Front: L C R, Side: L R, LFE
Частота : 48,0 КГц
Частота кадров : 187,500 кадров/сек (256 SPF)
Метод сжатия : С потерями
Размер потока : 231 Мбайт (9%)
Заголовок : rus
Язык : Russian
Default : Да
Forced : Нет
Аудио #2
Идентификатор : 3
Формат : E-AC-3
Формат/Информация : Enhanced Audio Coding 3
Параметр Endianness формата : Big
Идентификатор кодека : A_EAC3
Продолжительность : 50 м. 32 с.
Вид битрейта : Постоянный
Битрейт : 640 Кбит/сек
Каналы : 6 каналов
Расположение каналов : Front: L C R, Side: L R, LFE
Частота : 48,0 КГц
Частота кадров : 187,500 кадров/сек (256 SPF)
Метод сжатия : С потерями
Размер потока : 231 Мбайт (9%)
Заголовок : eng
Язык : English
Default : Нет
Forced : Нет
Текст #1
Идентификатор : 4
Формат : UTF-8
Идентификатор кодека : S_TEXT/UTF8
Идентификатор кодека/Информация : UTF-8 Plain Text
Продолжительность : 36 м. 52 с.
Битрейт : 2 бит/сек
ElementCount : 15
Размер потока : 673 байт (0%)
Заголовок : rusForced
Язык : Russian
Default : Да
Forced : Да
Текст #2
Идентификатор : 5
Формат : UTF-8
Идентификатор кодека : S_TEXT/UTF8
Идентификатор кодека/Информация : UTF-8 Plain Text
Продолжительность : 48 м. 40 с.
Битрейт : 60 бит/сек
ElementCount : 496
Размер потока : 21,7 Кбайт (0%)
Заголовок : rusFull
Язык : Russian
Default : Нет
Forced : Нет
Текст #3
Идентификатор : 6
Формат : UTF-8
Идентификатор кодека : S_TEXT/UTF8
Идентификатор кодека/Информация : UTF-8 Plain Text
Продолжительность : 48 м. 53 с.
Битрейт : 59 бит/сек
ElementCount : 778
Размер потока : 21,2 Кбайт (0%)
Заголовок : engSDH
Язык : English
Default : Нет
Forced : Нет-
-

Скриншоты

--
-Релиз от: -
[Профиль] [ЛС]
Показать сообщения:    
Ответить на тему

Текущее время: 20-Июл 19:48

Часовой пояс: UTC + 4



Вы не можете начинать темы
Вы не можете отвечать на сообщения
Вы не можете редактировать свои сообщения
Вы не можете удалять свои сообщения
Вы не можете голосовать в опросах
Вы не можете прикреплять файлы к сообщениям
Вы не можете скачивать файлы
Анализ веб сайтов Яндекс.Метрика